  0
SECTION
  2
HEADER
  9
$ACADVER
  1
AC1018
  9
$ACADMAINTVER
 70
   104
  9
$DWGCODEPAGE
  3
ANSI_1251
  9
$LASTSAVEDBY
  1
Emili
  9
$INSBASE
 10
0.0
 20
0.0
 30
0.0
  9
$EXTMIN
 10
25.1969355505523
 20
54.70214171967154
 30
0.0
  9
$EXTMAX
 10
857.9399449667064
 20
403.680828064632
 30
0.0
  9
$LIMMIN
 10
0.0
 20
0.0
  9
$LIMMAX
 10
420.0
 20
297.0
  9
$ORTHOMODE
 70
     0
  9
$REGENMODE
 70
     1
  9
$FILLMODE
 70
     1
  9
$QTEXTMODE
 70
     0
  9
$MIRRTEXT
 70
     1
  9
$LTSCALE
 40
1.0
  9
$ATTMODE
 70
     1
  9
$TEXTSIZE
 40
2.5
  9
$TRACEWID
 40
1.0
  9
$TEXTSTYLE
  7
Standard
  9
$CLAYER
  8
0
  9
$CELTYPE
  6
ByLayer
  9
$CECOLOR
 62
   256
  9
$CELTSCALE
 40
1.0
  9
$DISPSILH
 70
     0
  9
$DIMSCALE
 40
1.0
  9
$DIMASZ
 40
4.0
  9
$DIMEXO
 40
0.625
  9
$DIMDLI
 40
3.75
  9
$DIMRND
 40
0.0
  9
$DIMDLE
 40
0.0
  9
$DIMEXE
 40
1.25
  9
$DIMTP
 40
0.0
  9
$DIMTM
 40
0.0
  9
$DIMTXT
 40
4.0
  9
$DIMCEN
 40
2.5
  9
$DIMTSZ
 40
0.0
  9
$DIMTOL
 70
     0
  9
$DIMLIM
 70
     0
  9
$DIMTIH
 70
     0
  9
$DIMTOH
 70
     0
  9
$DIMSE1
 70
     0
  9
$DIMSE2
 70
     0
  9
$DIMTAD
 70
     1
  9
$DIMZIN
 70
     8
  9
$DIMBLK
  1

  9
$DIMASO
 70
     1
  9
$DIMSHO
 70
     1
  9
$DIMPOST
  1

  9
$DIMAPOST
  1

  9
$DIMALT
 70
     0
  9
$DIMALTD
 70
     3
  9
$DIMALTF
 40
0.03937007874016
  9
$DIMLFAC
 40
1.0
  9
$DIMTOFL
 70
     1
  9
$DIMTVP
 40
0.0
  9
$DIMTIX
 70
     0
  9
$DIMSOXD
 70
     0
  9
$DIMSAH
 70
     0
  9
$DIMBLK1
  1

  9
$DIMBLK2
  1

  9
$DIMSTYLE
  2
ISO-25
  9
$DIMCLRD
 70
     1
  9
$DIMCLRE
 70
     1
  9
$DIMCLRT
 70
     1
  9
$DIMTFAC
 40
1.0
  9
$DIMGAP
 40
1.0
  9
$DIMJUST
 70
     0
  9
$DIMSD1
 70
     0
  9
$DIMSD2
 70
     0
  9
$DIMTOLJ
 70
     0
  9
$DIMTZIN
 70
     8
  9
$DIMALTZ
 70
     0
  9
$DIMALTTZ
 70
     0
  9
$DIMUPT
 70
     0
  9
$DIMDEC
 70
     1
  9
$DIMTDEC
 70
     1
  9
$DIMALTU
 70
     2
  9
$DIMALTTD
 70
     3
  9
$DIMTXSTY
  7
Standard
  9
$DIMAUNIT
 70
     0
  9
$DIMADEC
 70
     0
  9
$DIMALTRND
 40
0.0
  9
$DIMAZIN
 70
     0
  9
$DIMDSEP
 70
    44
  9
$DIMATFIT
 70
     3
  9
$DIMFRAC
 70
     0
  9
$DIMLDRBLK
  1

  9
$DIMLUNIT
 70
     2
  9
$DIMLWD
 70
    -2
  9
$DIMLWE
 70
    -2
  9
$DIMTMOVE
 70
     0
  9
$LUNITS
 70
     2
  9
$LUPREC
 70
     1
  9
$SKETCHINC
 40
1.0
  9
$FILLETRAD
 40
10.0
  9
$AUNITS
 70
     0
  9
$AUPREC
 70
     0
  9
$MENU
  1
.
  9
$ELEVATION
 40
0.0
  9
$PELEVATION
 40
0.0
  9
$THICKNESS
 40
0.0
  9
$LIMCHECK
 70
     0
  9
$CHAMFERA
 40
10.0
  9
$CHAMFERB
 40
10.0
  9
$CHAMFERC
 40
20.0
  9
$CHAMFERD
 40
0.0
  9
$SKPOLY
 70
     0
  9
$TDCREATE
 40
2454431.458186123
  9
$TDUCREATE
 40
2454431.333186123
  9
$TDUPDATE
 40
2456175.436475324
  9
$TDUUPDATE
 40
2456175.311475324
  9
$TDINDWG
 40
0.0295736574
  9
$TDUSRTIMER
 40
0.0295736574
  9
$USRTIMER
 70
     1
  9
$ANGBASE
 50
0.0
  9
$ANGDIR
 70
     0
  9
$PDMODE
 70
     0
  9
$PDSIZE
 40
-1.0
  9
$PLINEWID
 40
0.0
  9
$SPLFRAME
 70
     0
  9
$SPLINETYPE
 70
     6
  9
$SPLINESEGS
 70
     8
  9
$HANDSEED
  5
1D67
  9
$SURFTAB1
 70
     6
  9
$SURFTAB2
 70
     6
  9
$SURFTYPE
 70
     6
  9
$SURFU
 70
     6
  9
$SURFV
 70
     6
  9
$UCSBASE
  2

  9
$UCSNAME
  2

  9
$UCSORG
 10
0.0
 20
0.0
 30
0.0
  9
$UCSXDIR
 10
1.0
 20
0.0
 30
0.0
  9
$UCSYDIR
 10
0.0
 20
1.0
 30
0.0
  9
$UCSORTHOREF
  2

  9
$UCSORTHOVIEW
 70
     0
  9
$UCSORGTOP
 10
0.0
 20
0.0
 30
0.0
  9
$UCSORGBOTTOM
 10
0.0
 20
0.0
 30
0.0
  9
$UCSORGLEFT
 10
0.0
 20
0.0
 30
0.0
  9
$UCSORGRIGHT
 10
0.0
 20
0.0
 30
0.0
  9
$UCSORGFRONT
 10
0.0
 20
0.0
 30
0.0
  9
$UCSORGBACK
 10
0.0
 20
0.0
 30
0.0
  9
$PUCSBASE
  2

  9
$PUCSNAME
  2

  9
$PUCSORG
 10
0.0
 20
0.0
 30
0.0
  9
$PUCSXDIR
 10
1.0
 20
0.0
 30
0.0
  9
$PUCSYDIR
 10
0.0
 20
1.0
 30
0.0
  9
$PUCSORTHOREF
  2

  9
$PUCSORTHOVIEW
 70
     0
  9
$PUCSORGTOP
 10
0.0
 20
0.0
 30
0.0
  9
$PUCSORGBOTTOM
 10
0.0
 20
0.0
 30
0.0
  9
$PUCSORGLEFT
 10
0.0
 20
0.0
 30
0.0
  9
$PUCSORGRIGHT
 10
0.0
 20
0.0
 30
0.0
  9
$PUCSORGFRONT
 10
0.0
 20
0.0
 30
0.0
  9
$PUCSORGBACK
 10
0.0
 20
0.0
 30
0.0
  9
$USERI1
 70
     0
  9
$USERI2
 70
     0
  9
$USERI3
 70
     0
  9
$USERI4
 70
     0
  9
$USERI5
 70
     0
  9
$USERR1
 40
0.0
  9
$USERR2
 40
0.0
  9
$USERR3
 40
0.0
  9
$USERR4
 40
0.0
  9
$USERR5
 40
0.0
  9
$WORLDVIEW
 70
     1
  9
$SHADEDGE
 70
     3
  9
$SHADEDIF
 70
    70
  9
$TILEMODE
 70
     1
  9
$MAXACTVP
 70
    64
  9
$PINSBASE
 10
0.0
 20
0.0
 30
0.0
  9
$PLIMCHECK
 70
     0
  9
$PEXTMIN
 10
1.000000000000000E+20
 20
1.000000000000000E+20
 30
1.000000000000000E+20
  9
$PEXTMAX
 10
-1.000000000000000E+20
 20
-1.000000000000000E+20
 30
-1.000000000000000E+20
  9
$PLIMMIN
 10
0.0
 20
0.0
  9
$PLIMMAX
 10
420.0
 20
297.0
  9
$UNITMODE
 70
     0
  9
$VISRETAIN
 70
     1
  9
$PLINEGEN
 70
     0
  9
$PSLTSCALE
 70
     1
  9
$TREEDEPTH
 70
  3020
  9
$CMLSTYLE
  2
Standard
  9
$CMLJUST
 70
     0
  9
$CMLSCALE
 40
20.0
  9
$PROXYGRAPHICS
 70
     1
  9
$MEASUREMENT
 70
     1
  9
$CELWEIGHT
370
    -1
  9
$ENDCAPS
280
     0
  9
$JOINSTYLE
280
     0
  9
$LWDISPLAY
290
     1
  9
$INSUNITS
 70
     4
  9
$HYPERLINKBASE
  1

  9
$STYLESHEET
  1

  9
$XEDIT
290
     1
  9
$CEPSNTYPE
380
     0
  9
$PSTYLEMODE
290
     1
  9
$FINGERPRINTGUID
  2
{CA580871-FEA3-4C95-A602-8FD7E7DD1D35}
  9
$VERSIONGUID
  2
{CB95EDE1-CD79-4C96-A596-AA7277E7D382}
  9
$EXTNAMES
290
     1
  9
$PSVPSCALE
 40
0.0
  9
$OLESTARTUP
290
     0
  9
$SORTENTS
280
   127
  9
$INDEXCTL
280
     0
  9
$HIDETEXT
280
     0
  9
$XCLIPFRAME
290
     0
  9
$HALOGAP
280
     0
  9
$OBSCOLOR
 70
   257
  9
$OBSLTYPE
280
     0
  9
$INTERSECTIONDISPLAY
280
     0
  9
$INTERSECTIONCOLOR
 70
   257
  9
$DIMASSOC
280
     1
  9
$PROJECTNAME
  1

  0
ENDSEC
  0
SECTION
  2
CLASSES
  0
CLASS
  1
ACDBDICTIONARYWDFLT
  2
AcDbDictionaryWithDefault
  3
ObjectDBX Classes
 90
        0
 91
        1
280
     0
281
     0
  0
CLASS
  1
TABLESTYLE
  2
AcDbTableStyle
  3
ObjectDBX Classes
 90
     4095
 91
        1
280
     0
281
     0
  0
CLASS
  1
ACAD_EVALUATION_GRAPH
  2
AcDbEvalGraph
  3
ObjectDBX Classes
 90
     1153
 91
        0
280
     0
281
     0
  0
CLASS
  1
ACAECUSTOBJ
  2
AcAeEditorObj
  3
AcAeEditorObj
 90
     1024
 91
        0
280
     0
281
     0
  0
CLASS
  1
ACDB_DYNAMICBLOCKPURGEPREVENTER_VERSION
  2
AcDbDynamicBlockPurgePreventer
  3
ObjectDBX Classes
 90
     1153
 91
        0
280
     0
281
     0
  0
CLASS
  1
DICTIONARYVAR
  2
AcDbDictionaryVar
  3
ObjectDBX Classes
 90
        0
 91
        3
280
     0
281
     0
  0
CLASS
  1
MATERIAL
  2
AcDbMaterial
  3
ObjectDBX Classes
 90
     1153
 91
        3
280
     0
281
     0
  0
CLASS
  1
VISUALSTYLE
  2
AcDbVisualStyle
  3
ObjectDBX Classes
 90
     4095
 91
       16
280
     0
281
     0
  0
CLASS
  1
SCALE
  2
AcDbScale
  3
ObjectDBX Classes
 90
     1153
 91
       17
280
     0
281
     0
  0
CLASS
  1
MLEADERSTYLE
  2
AcDbMLeaderStyle
  3
ACDB_MLEADERSTYLE_CLASS
 90
     4095
 91
        1
280
     0
281
     0
  0
CLASS
  1
SORTENTSTABLE
  2
AcDbSortentsTable
  3
ObjectDBX Classes
 90
        0
 91
        1
280
     0
281
     0
  0
CLASS
  1
CELLSTYLEMAP
  2
AcDbCellStyleMap
  3
ObjectDBX Classes
 90
     1152
 91
        3
280
     0
281
     0
  0
ENDSEC
  0
SECTION
  2
TABLES
  0
TABLE
  2
VPORT
  5
8
102
{ACAD_XDICTIONARY
360
D63
102
}
330
0
100
AcDbSymbolTable
 70
     1
  0
VPORT
  5
732
330
8
100
AcDbSymbolTableRecord
100
AcDbViewportTableRecord
  2
*Active
 70
     0
 10
0.0
 20
0.0
 11
1.0
 21
1.0
 12
322.1579494148843
 22
131.7803074165824
 13
0.0
 23
0.0
 14
10.0
 24
10.0
 15
10.0
 25
10.0
 16
0.0
 26
0.0
 36
1.0
 17
103.2134679961487
 27
140.9367334267871
 37
-0.000000000000864
 40
1040.380137232376
 41
2.116816431322207
 42
50.0
 43
0.0
 44
0.0
 50
0.0
 51
0.0
 71
     0
 72
  2000
 73
     1
 74
     3
 75
     0
 76
     0
 77
     0
 78
     0
281
     0
 65
     1
110
0.0
120
0.0
130
0.0
111
1.0
121
0.0
131
0.0
112
0.0
122
1.0
132
0.0
 79
     0
146
0.0
  0
ENDTAB
  0
TABLE
  2
LTYPE
  5
5
330
0
100
AcDbSymbolTable
 70
     6
  0
LTYPE
  5
14
330
5
100
AcDbSymbolTableRecord
100
AcDbLinetypeTableRecord
  2
ByBlock
 70
     0
  3

 72
    65
 73
     0
 40
0.0
  0
LTYPE
  5
15
330
5
100
AcDbSymbolTableRecord
100
AcDbLinetypeTableRecord
  2
ByLayer
 70
     0
  3

 72
    65
 73
     0
 40
0.0
  0
LTYPE
  5
16
330
5
100
AcDbSymbolTableRecord
100
AcDbLinetypeTableRecord
  2
Continuous
 70
     0
  3
Solid line
 72
    65
 73
     0
 40
0.0
  0
LTYPE
  5
2A
330
5
100
AcDbSymbolTableRecord
100
AcDbLinetypeTableRecord
  2
HIDDEN
 70
     0
  3
Hidden __ __ __ __ __ __ __ __ __ __ __ __ __ __
 72
    65
 73
     2
 40
1.905
 49
1.27
 74
     0
 49
-0.635
 74
     0
  0
LTYPE
  5
2B
330
5
100
AcDbSymbolTableRecord
100
AcDbLinetypeTableRecord
  2
PHANTOM
 70
     0
  3
Phantom ______  __  __  ______  __  __  ______
 72
    65
 73
     6
 40
12.7
 49
6.349999999999999
 74
     0
 49
-1.27
 74
     0
 49
1.27
 74
     0
 49
-1.27
 74
     0
 49
1.27
 74
     0
 49
-1.27
 74
     0
  0
LTYPE
  5
2C
330
5
100
AcDbSymbolTableRecord
100
AcDbLinetypeTableRecord
  2
CENTER
 70
     0
  3
Center ____ _ ____ _ ____ _ ____ _ ____ _ ____
 72
    65
 73
     4
 40
10.16
 49
6.349999999999999
 74
     0
 49
-1.27
 74
     0
 49
1.27
 74
     0
 49
-1.27
 74
     0
  0
LTYPE
  5
2D
330
5
100
AcDbSymbolTableRecord
100
AcDbLinetypeTableRecord
  2
CENTERX2
 70
     0
  3
Center (2x) ________  __  ________  __  _____
 72
    65
 73
     4
 40
20.32
 49
12.7
 74
     0
 49
-2.54
 74
     0
 49
2.54
 74
     0
 49
-2.54
 74
     0
  0
LTYPE
  5
2E
330
5
100
AcDbSymbolTableRecord
100
AcDbLinetypeTableRecord
  2
DOT2
 70
     0
  3
Dot (.5x) ........................................
 72
    65
 73
     2
 40
0.635
 49
0.0
 74
     0
 49
-0.635
 74
     0
  0
ENDTAB
  0
TABLE
  2
LAYER
  5
2
102
{ACAD_XDICTIONARY
360
6F5
102
}
330
0
100
AcDbSymbolTable
 70
     5
  0
LAYER
  5
10
102
{ACAD_XDICTIONARY
360
D58
102
}
330
2
100
AcDbSymbolTableRecord
100
AcDbLayerTableRecord
  2
0
 70
     0
 62
     7
  6
Continuous
370
    -3
390
F
  0
LAYER
  5
2F
102
{ACAD_XDICTIONARY
360
D5A
102
}
330
2
100
AcDbSymbolTableRecord
100
AcDbLayerTableRecord
  2
размер
 70
     0
 62
     7
  6
Continuous
370
     0
390
F
  0
LAYER
  5
97
330
2
100
AcDbSymbolTableRecord
100
AcDbLayerTableRecord
  2
Defpoints
 70
     0
 62
     7
  6
Continuous
290
     0
370
    -3
390
F
  0
LAYER
  5
814
102
{ACAD_XDICTIONARY
360
815
102
}
330
2
100
AcDbSymbolTableRecord
100
AcDbLayerTableRecord
  2
Пластина
 70
     0
 62
     7
  6
Continuous
370
    -3
390
F
  0
LAYER
  5
E63
330
2
100
AcDbSymbolTableRecord
100
AcDbLayerTableRecord
  2
FORMAT
 70
     0
 62
     7
  6
Continuous
370
    -3
390
F
  0
ENDTAB
  0
TABLE
  2
STYLE
  5
3
330
0
100
AcDbSymbolTable
 70
     4
  0
STYLE
  5
11
330
3
100
AcDbSymbolTableRecord
100
AcDbTextStyleTableRecord
  2
Standard
 70
     0
 40
0.0
 41
1.0
 50
0.0
 71
     0
 42
2.5
  3
txt
  4

  0
STYLE
  5
A5
330
3
100
AcDbSymbolTableRecord
100
AcDbTextStyleTableRecord
  2
SLDTEXTSTYLE0
 70
     0
 40
0.0
 41
0.75
 50
0.0
 71
     0
 42
0.2
  3
TXT
  4

  0
STYLE
  5
816
330
3
100
AcDbSymbolTableRecord
100
AcDbTextStyleTableRecord
  2
GOSTw
 70
     0
 40
0.0
 41
1.0
 50
0.0
 71
     0
 42
4.0
  3
gostw.shx
  4

  0
STYLE
  5
817
330
3
100
AcDbSymbolTableRecord
100
AcDbTextStyleTableRecord
  2
Demo
 70
     0
 40
0.0
 41
1.199999999999999
 50
5.0
 71
     0
 42
3.0
  3
arial.ttf
  4

1001
ACAD
1000
Arial
1071
       34
  0
ENDTAB
  0
TABLE
  2
VIEW
  5
6
330
0
100
AcDbSymbolTable
 70
     0
  0
ENDTAB
  0
TABLE
  2
UCS
  5
7
330
0
100
AcDbSymbolTable
 70
     0
  0
ENDTAB
  0
TABLE
  2
APPID
  5
9
330
0
100
AcDbSymbolTable
 70
    16
  0
APPID
  5
12
330
9
100
AcDbSymbolTableRecord
100
AcDbRegAppTableRecord
  2
ACAD
 70
     0
  0
APPID
  5
22A
330
9
100
AcDbSymbolTableRecord
100
AcDbRegAppTableRecord
  2
ACAD_DSTYLE_DIMTEXT_FILL
 70
     0
  0
APPID
  5
22B
330
9
100
AcDbSymbolTableRecord
100
AcDbRegAppTableRecord
  2
ACAD_DSTYLE_DIMEXT_LENGTH
 70
     0
  0
APPID
  5
22C
330
9
100
AcDbSymbolTableRecord
100
AcDbRegAppTableRecord
  2
ACAD_DSTYLE_DIMEXT_ENABLED
 70
     0
  0
APPID
  5
22D
330
9
100
AcDbSymbolTableRecord
100
AcDbRegAppTableRecord
  2
ACAD_DSTYLE_DIM_LINETYPE
 70
     0
  0
APPID
  5
22E
330
9
100
AcDbSymbolTableRecord
100
AcDbRegAppTableRecord
  2
ACAD_DSTYLE_DIM_EXT1_LINETYPE
 70
     0
  0
APPID
  5
22F
330
9
100
AcDbSymbolTableRecord
100
AcDbRegAppTableRecord
  2
ACAD_DSTYLE_DIM_EXT2_LINETYPE
 70
     0
  0
APPID
  5
31B
330
9
100
AcDbSymbolTableRecord
100
AcDbRegAppTableRecord
  2
ACAD_DSTYLE_DIMJOGGED_JOGANGLE_SYMBOL
 70
     0
  0
APPID
  5
64F
330
9
100
AcDbSymbolTableRecord
100
AcDbRegAppTableRecord
  2
ACAD_DSTYLE_DIMARC_LENGTH_SYMBOL
 70
     0
  0
APPID
  5
6D5
330
9
100
AcDbSymbolTableRecord
100
AcDbRegAppTableRecord
  2
ACAUTHENVIRON
 70
     0
  0
APPID
  5
6D9
330
9
100
AcDbSymbolTableRecord
100
AcDbRegAppTableRecord
  2
AcDbDynamicBlockTrueName
 70
     0
  0
APPID
  5
6DA
330
9
100
AcDbSymbolTableRecord
100
AcDbRegAppTableRecord
  2
AcDbDynamicBlockGUID
 70
     0
  0
APPID
  5
6DC
330
9
100
AcDbSymbolTableRecord
100
AcDbRegAppTableRecord
  2
AcDbBlockRepETag
 70
     0
  0
APPID
  5
773
330
9
100
AcDbSymbolTableRecord
100
AcDbRegAppTableRecord
  2
ACAD_MLEADERVER
 70
     0
  0
APPID
  5
AF4
330
9
100
AcDbSymbolTableRecord
100
AcDbRegAppTableRecord
  2
ACAD_EXEMPT_FROM_CAD_STANDARDS
 70
     0
  0
APPID
  5
1BB9
330
9
100
AcDbSymbolTableRecord
100
AcDbRegAppTableRecord
  2
ACAD_DSTYLE_DIMRADIAL_EXTENSION
 70
     0
  0
ENDTAB
  0
TABLE
  2
DIMSTYLE
  5
A
330
0
100
AcDbSymbolTable
 70
     4
100
AcDbDimStyleTable
 71
     1
340
27
  0
DIMSTYLE
105
27
102
{ACAD_REACTORS
330
12A6
330
12A7
330
12A5
330
1347
330
1265
330
1266
330
136A
330
1345
330
1346
330
18C8
330
1963
330
1970
330
1ACE
330
1ACF
330
1B1A
330
1B29
330
1B65
330
1B74
330
1B8A
330
1BAC
102
}
330
A
100
AcDbSymbolTableRecord
100
AcDbDimStyleTableRecord
  2
ISO-25
 70
     0
 41
4.0
 42
0.625
 43
3.75
 44
1.25
 73
     0
 74
     0
 77
     1
 78
     8
140
4.0
141
2.5
143
0.03937007874016
147
1.0
171
     3
172
     1
176
     1
177
     1
178
     1
271
     1
272
     1
274
     3
278
    44
283
     0
284
     8
340
11
1001
ACAD_DSTYLE_DIMEXT_LENGTH
1070
   378
1040
1.25
1001
ACAD_DSTYLE_DIMJOGGED_JOGANGLE_SYMBOL
1070
   384
1040
1.570796326794896
  0
DIMSTYLE
105
A6
330
A
100
AcDbSymbolTableRecord
100
AcDbDimStyleTableRecord
  2
SLDDIMSTYLE0
 70
     0
 41
3.962399999999999
 44
0.0
 73
     0
 74
     0
 77
     2
 78
    12
140
3.5
147
0.875
173
     1
271
     1
272
     3
284
    12
340
A5
  0
DIMSTYLE
105
818
102
{ACAD_REACTORS
330
16FE
102
}
330
A
100
AcDbSymbolTableRecord
100
AcDbDimStyleTableRecord
  2
Vad-style
 70
     0
 40
1.0
 41
3.0
 42
0.625
 43
4.0
 44
1.25
 73
     0
 74
     0
 77
     1
 78
     8
140
3.0
141
2.5
143
0.03937007874016
147
0.8
171
     3
172
     1
176
     1
177
     1
178
     1
179
     2
271
     2
272
     2
274
     3
278
    44
283
     0
284
     8
340
816
  0
DIMSTYLE
105
E64
330
A
100
AcDbSymbolTableRecord
100
AcDbDimStyleTableRecord
  2
SLDDIMSTYLE1
 70
     0
 41
3.962399999999999
 44
0.0
 45
0.000000001
 73
     0
 74
     0
 77
     2
 78
    12
140
3.5
147
0.875
173
     1
271
     1
272
     1
284
    12
340
A5
  0
ENDTAB
  0
TABLE
  2
BLOCK_RECORD
  5
1
330
0
100
AcDbSymbolTable
 70
    25
  0
BLOCK_RECORD
  5
1F
102
{ACAD_XDICTIONARY
360
B40
102
}
330
1
100
AcDbSymbolTableRecord
100
AcDbBlockTableRecord
  2
*Model_Space
340
22
  0
BLOCK_RECORD
  5
1B
330
1
100
AcDbSymbolTableRecord
100
AcDbBlockTableRecord
  2
*Paper_Space
340
1E
  0
BLOCK_RECORD
  5
23
330
1
100
AcDbSymbolTableRecord
100
AcDbBlockTableRecord
  2
*Paper_Space0
340
26
  0
BLOCK_RECORD
  5
158
102
{ACAD_XDICTIONARY
360
6E8
102
}
330
1
100
AcDbSymbolTableRecord
100
AcDbBlockTableRecord
  2
SW_CENTERMARKSYMBOL_0
340
0
102
{BLKREFS
331
1348
102
}
1001
AcDbDynamicBlockGUID
1000
{9C2D8E1E-0D58-482F-BE2A-600070161D66}
1001
AcDbBlockRepETag
1070
     1
1071
        8
  0
BLOCK_RECORD
  5
196
102
{ACAD_XDICTIONARY
360
6D6
102
}
330
1
100
AcDbSymbolTableRecord
100
AcDbBlockTableRecord
  2
SW_CENTERMARKSYMBOL_1
340
0
102
{BLKREFS
331
136B
102
}
1001
AcDbDynamicBlockGUID
1000
{5D58C706-DC9F-4AC8-8C33-821266A37328}
1001
AcDbBlockRepETag
1070
     1
1071
        8
  0
BLOCK_RECORD
  5
777
330
1
100
AcDbSymbolTableRecord
100
AcDbBlockTableRecord
  2
Винт_М2_V
340
0
310
2800000020000000200000000100080000000000000400000000000000000000000000000000000000000000000080000080000000808000800000008000800080800000C0C0C000C0DCC000F0CAA6000020400000206000002080000020A0000020C0000020E00000400000004020000040400000406000004080000040A0
310
000040C0000040E00000600000006020000060400000606000006080000060A0000060C0000060E00000800000008020000080400000806000008080000080A0000080C0000080E00000A0000000A0200000A0400000A0600000A0800000A0A00000A0C00000A0E00000C0000000C0200000C0400000C0600000C0800000C0
310
A00000C0C00000C0E00000E0000000E0200000E0400000E0600000E0800000E0A00000E0C00000E0E00040000000400020004000400040006000400080004000A0004000C0004000E00040200000402020004020400040206000402080004020A0004020C0004020E000404000004040200040404000404060004040800040
310
40A0004040C0004040E00040600000406020004060400040606000406080004060A0004060C0004060E00040800000408020004080400040806000408080004080A0004080C0004080E00040A0000040A0200040A0400040A0600040A0800040A0A00040A0C00040A0E00040C0000040C0200040C0400040C0600040C08000
310
40C0A00040C0C00040C0E00040E0000040E0200040E0400040E0600040E0800040E0A00040E0C00040E0E00080000000800020008000400080006000800080008000A0008000C0008000E00080200000802020008020400080206000802080008020A0008020C0008020E00080400000804020008040400080406000804080
310
008040A0008040C0008040E00080600000806020008060400080606000806080008060A0008060C0008060E00080800000808020008080400080806000808080008080A0008080C0008080E00080A0000080A0200080A0400080A0600080A0800080A0A00080A0C00080A0E00080C0000080C0200080C0400080C0600080C0
310
800080C0A00080C0C00080C0E00080E0000080E0200080E0400080E0600080E0800080E0A00080E0C00080E0E000C0000000C0002000C0004000C0006000C0008000C000A000C000C000C000E000C0200000C0202000C0204000C0206000C0208000C020A000C020C000C020E000C0400000C0402000C0404000C0406000C0
310
408000C040A000C040C000C040E000C0600000C0602000C0604000C0606000C0608000C060A000C060C000C060E000C0800000C0802000C0804000C0806000C0808000C080A000C080C000C080E000C0A00000C0A02000C0A04000C0A06000C0A08000C0A0A000C0A0C000C0A0E000C0C00000C0C02000C0C04000C0C06000
310
C0C08000C0C0A000F0FBFF00A4A0A000808080000000FF0000FF000000FFFF00FF000000FF00FF00FFFF0000FFFFFF0000000000000000000000000000000000000000000000000000000000000000000000000000000000000000000000000000000000000000000000000000000000000000000000000000000000FFFFFF
310
FFFF00000000000000000000000000000000000000000000000000FFFF0000000000FFFFFFFFFF000000000000000000000000000000000000FFFF000000000000000000000000FF00FF00000000000000000000000000FFFF000000000000000000000000000000FF00000000000000000000000000FF0000000000000000
310
0000000000000000FF00FFFF0000000000000000000000FF000000000000000000000000000000FF00000000FFFF0000000000000000FF000000000000000000000000000000FF0000000000FFFF0000000000000000FF0000000000000000000000000000FF0000000000FF00FF00000000000000FF000000000000000000
310
0000000000FF0000000000FF000000FF000000000000FF00000000000000000000000000FF0000000000FF00000000FF0000000000FF00000000000000000000000000FF0000000000FF000000000000FF00000000FF000000000000000000000000FF0000000000FF00000000000000FF00000000FF000000000000000000
310
0000FF0000000000FF0000000000000000FF00000000FF00000000000000000000FF0000000000FF00000000000000000000FF000000FF000000000000000000FF0000000000FF0000000000000000000000FF000000FF0000000000000000FF0000000000FF000000000000000000000000FF000000FF00000000000000FF
310
0000000000FF000000000000000000000000FF00000000FF000000000000FF0000000000FF00000000000000000000000000FF0000000000FF00000000FF0000000000FF00000000000000000000000000FF000000000000FF000000FF0000000000FF0000000000000000000000000000FF00000000000000FF00FF000000
310
0000FF0000000000000000000000000000FF0000000000000000FFFF0000000000FF000000000000000000000000000000FF0000000000000000FFFF00000000FF000000000000000000000000000000FF00000000000000000000FF000000FF000000000000000000000000000000FF000000000000000000000000FFFFFF
310
0000000000000000000000000000FFFF0000000000000000000000000000FFFFFF000000000000000000000000FF00000000000000000000000000000000000000FFFF000000000000FFFFFFFF00000000000000000000000000000000000000000000FFFFFFFFFFFF00000000000000000000000000000000000000000000
310
0000000000000000000000000000000000000000000000000000000000000000000000000000000000000000000000000000000000000000
1001
ACAD
1000
DesignCenter Data
1002
{
1070
     1
1070
     4
1002
}
  0
BLOCK_RECORD
  5
142F
330
1
100
AcDbSymbolTableRecord
100
AcDbBlockTableRecord
  2
*D4
340
0
  0
BLOCK_RECORD
  5
143B
330
1
100
AcDbSymbolTableRecord
100
AcDbBlockTableRecord
  2
*D5
340
0
  0
BLOCK_RECORD
  5
1447
330
1
100
AcDbSymbolTableRecord
100
AcDbBlockTableRecord
  2
*D6
340
0
  0
BLOCK_RECORD
  5
1453
330
1
100
AcDbSymbolTableRecord
100
AcDbBlockTableRecord
  2
*D7
340
0
  0
BLOCK_RECORD
  5
145F
330
1
100
AcDbSymbolTableRecord
100
AcDbBlockTableRecord
  2
*D8
340
0
  0
BLOCK_RECORD
  5
146C
330
1
100
AcDbSymbolTableRecord
100
AcDbBlockTableRecord
  2
*D9
340
0
  0
BLOCK_RECORD
  5
1478
330
1
100
AcDbSymbolTableRecord
100
AcDbBlockTableRecord
  2
*D10
340
0
  0
BLOCK_RECORD
  5
1485
330
1
100
AcDbSymbolTableRecord
100
AcDbBlockTableRecord
  2
*D11
340
0
  0
BLOCK_RECORD
  5
1491
330
1
100
AcDbSymbolTableRecord
100
AcDbBlockTableRecord
  2
*D12
340
0
  0
BLOCK_RECORD
  5
177F
330
1
100
AcDbSymbolTableRecord
100
AcDbBlockTableRecord
  2
*D13
340
0
  0
BLOCK_RECORD
  5
18D6
330
1
100
AcDbSymbolTableRecord
100
AcDbBlockTableRecord
  2
*D14
340
0
  0
BLOCK_RECORD
  5
1964
330
1
100
AcDbSymbolTableRecord
100
AcDbBlockTableRecord
  2
*D15
340
0
  0
BLOCK_RECORD
  5
1971
330
1
100
AcDbSymbolTableRecord
100
AcDbBlockTableRecord
  2
*D16
340
0
  0
BLOCK_RECORD
  5
1AD0
330
1
100
AcDbSymbolTableRecord
100
AcDbBlockTableRecord
  2
*D17
340
0
  0
BLOCK_RECORD
  5
1ADC
330
1
100
AcDbSymbolTableRecord
100
AcDbBlockTableRecord
  2
*D18
340
0
  0
BLOCK_RECORD
  5
1B1B
330
1
100
AcDbSymbolTableRecord
100
AcDbBlockTableRecord
  2
*D19
340
0
  0
BLOCK_RECORD
  5
1B2A
330
1
100
AcDbSymbolTableRecord
100
AcDbBlockTableRecord
  2
*D20
340
0
  0
BLOCK_RECORD
  5
1B66
330
1
100
AcDbSymbolTableRecord
100
AcDbBlockTableRecord
  2
*D21
340
0
  0
BLOCK_RECORD
  5
1B75
330
1
100
AcDbSymbolTableRecord
100
AcDbBlockTableRecord
  2
*D22
340
0
  0
BLOCK_RECORD
  5
1B8B
330
1
100
AcDbSymbolTableRecord
100
AcDbBlockTableRecord
  2
*D23
340
0
  0
BLOCK_RECORD
  5
1BAD
330
1
100
AcDbSymbolTableRecord
100
AcDbBlockTableRecord
  2
*D24
340
0
  0
ENDTAB
  0
ENDSEC
  0
SECTION
  2
BLOCKS
  0
BLOCK
  5
20
330
1F
100
AcDbEntity
  8
0
100
AcDbBlockBegin
  2
*Model_Space
 70
     0
 10
0.0
 20
0.0
 30
0.0
  3
*Model_Space
  1

  0
ENDBLK
  5
21
330
1F
100
AcDbEntity
  8
0
100
AcDbBlockEnd
  0
BLOCK
  5
1C
330
1B
100
AcDbEntity
 67
     1
  8
0
100
AcDbBlockBegin
  2
*Paper_Space
 70
     0
 10
0.0
 20
0.0
 30
0.0
  3
*Paper_Space
  1

  0
ENDBLK
  5
1D
330
1B
100
AcDbEntity
 67
     1
  8
0
100
AcDbBlockEnd
  0
BLOCK
  5
24
330
23
100
AcDbEntity
 67
     1
  8
0
100
AcDbBlockBegin
  2
*Paper_Space0
 70
     0
 10
0.0
 20
0.0
 30
0.0
  3
*Paper_Space0
  1

  0
ENDBLK
  5
25
330
23
100
AcDbEntity
 67
     1
  8
0
100
AcDbBlockEnd
  0
BLOCK
  5
159
330
158
100
AcDbEntity
  8
0
100
AcDbBlockBegin
  2
SW_CENTERMARKSYMBOL_0
 70
     0
 10
0.0
 20
0.0
 30
0.0
  3
SW_CENTERMARKSYMBOL_0
  1

  0
LINE
  5
6E0
330
158
100
AcDbEntity
  8
размер
  6
CENTER
 62
     4
100
AcDbLine
 10
0.0
 20
0.0
 30
0.0
 11
0.0
 21
2.540000000000014
 31
0.0
1001
AcDbBlockRepETag
1070
     1
1071
        0
1005
6E0
  0
LINE
  5
6E1
330
158
100
AcDbEntity
  8
размер
  6
CENTER
 62
     4
100
AcDbLine
 10
0.0
 20
0.0
 30
0.0
 11
-2.539999999999986
 21
0.0
 31
0.0
1001
AcDbBlockRepETag
1070
     1
1071
        1
1005
6E1
  0
LINE
  5
6E2
330
158
100
AcDbEntity
  8
размер
  6
CENTER
 62
     4
100
AcDbLine
 10
0.0
 20
0.0
 30
0.0
 11
0.0
 21
-2.539999999999986
 31
0.0
1001
AcDbBlockRepETag
1070
     1
1071
        2
1005
6E2
  0
LINE
  5
6E3
330
158
100
AcDbEntity
  8
размер
  6
CENTER
 62
     4
100
AcDbLine
 10
0.0
 20
0.0
 30
0.0
 11
2.540000000000014
 21
0.0
 31
0.0
1001
AcDbBlockRepETag
1070
     1
1071
        3
1005
6E3
  0
LINE
  5
6E4
330
158
100
AcDbEntity
  8
размер
  6
CENTER
 62
     4
100
AcDbLine
 10
0.0
 20
5.08
 30
0.0
 11
0.0
 21
8.539999999999992
 31
0.0
1001
AcDbBlockRepETag
1070
     1
1071
        4
1005
6E4
  0
LINE
  5
6E5
330
158
100
AcDbEntity
  8
размер
  6
CENTER
 62
     4
100
AcDbLine
 10
-5.08
 20
0.0
 30
0.0
 11
-8.539999999999992
 21
0.0
 31
0.0
1001
AcDbBlockRepETag
1070
     1
1071
        5
1005
6E5
  0
LINE
  5
6E6
330
158
100
AcDbEntity
  8
размер
  6
CENTER
 62
     4
100
AcDbLine
 10
0.0
 20
-5.08
 30
0.0
 11
0.0
 21
-8.539999999999992
 31
0.0
1001
AcDbBlockRepETag
1070
     1
1071
        6
1005
6E6
  0
LINE
  5
6E7
330
158
100
AcDbEntity
  8
размер
  6
CENTER
 62
     4
100
AcDbLine
 10
5.08
 20
0.0
 30
0.0
 11
8.539999999999992
 21
0.0
 31
0.0
1001
AcDbBlockRepETag
1070
     1
1071
        7
1005
6E7
  0
ENDBLK
  5
15A
330
158
100
AcDbEntity
  8
0
100
AcDbBlockEnd
  0
BLOCK
  5
197
330
196
100
AcDbEntity
  8
0
100
AcDbBlockBegin
  2
SW_CENTERMARKSYMBOL_1
 70
     0
 10
0.0
 20
0.0
 30
0.0
  3
SW_CENTERMARKSYMBOL_1
  1

  0
LINE
  5
6CD
330
196
100
AcDbEntity
  8
размер
  6
CENTER
 62
     4
100
AcDbLine
 10
0.0
 20
0.0
 30
0.0
 11
0.0
 21
2.539999999999986
 31
0.0
1001
AcDbBlockRepETag
1070
     1
1071
        0
1005
6CD
  0
LINE
  5
6CE
330
196
100
AcDbEntity
  8
размер
  6
CENTER
 62
     4
100
AcDbLine
 10
0.0
 20
0.0
 30
0.0
 11
-2.54
 21
0.0
 31
0.0
1001
AcDbBlockRepETag
1070
     1
1071
        1
1005
6CE
  0
LINE
  5
6CF
330
196
100
AcDbEntity
  8
размер
  6
CENTER
 62
     4
100
AcDbLine
 10
0.0
 20
0.0
 30
0.0
 11
0.0
 21
-2.540000000000014
 31
0.0
1001
AcDbBlockRepETag
1070
     1
1071
        2
1005
6CF
  0
LINE
  5
6D0
330
196
100
AcDbEntity
  8
размер
  6
CENTER
 62
     4
100
AcDbLine
 10
0.0
 20
0.0
 30
0.0
 11
2.54
 21
0.0
 31
0.0
1001
AcDbBlockRepETag
1070
     1
1071
        3
1005
6D0
  0
LINE
  5
6D1
330
196
100
AcDbEntity
  8
размер
  6
CENTER
 62
     4
100
AcDbLine
 10
0.0
 20
2.539999999999986
 30
0.0
 11
0.0
 21
5.039999999999988
 31
0.0
1001
AcDbBlockRepETag
1070
     1
1071
        4
1005
6D1
  0
LINE
  5
6D2
330
196
100
AcDbEntity
  8
размер
  6
CENTER
 62
     4
100
AcDbLine
 10
-2.54
 20
0.0
 30
0.0
 11
-5.040000000000002
 21
0.0
 31
0.0
1001
AcDbBlockRepETag
1070
     1
1071
        5
1005
6D2
  0
LINE
  5
6D3
330
196
100
AcDbEntity
  8
размер
  6
CENTER
 62
     4
100
AcDbLine
 10
0.0
 20
-2.540000000000014
 30
0.0
 11
0.0
 21
-5.040000000000016
 31
0.0
1001
AcDbBlockRepETag
1070
     1
1071
        6
1005
6D3
  0
LINE
  5
6D4
330
196
100
AcDbEntity
  8
размер
  6
CENTER
 62
     4
100
AcDbLine
 10
2.54
 20
0.0
 30
0.0
 11
5.040000000000002
 21
0.0
 31
0.0
1001
AcDbBlockRepETag
1070
     1
1071
        7
1005
6D4
  0
ENDBLK
  5
198
330
196
100
AcDbEntity
  8
0
100
AcDbBlockEnd
  0
BLOCK
  5
778
330
777
100
AcDbEntity
  8
0
100
AcDbBlockBegin
  2
Винт_М2_V
 70
     0
 10
0.0
 20
0.0
 30
0.0
  3
Винт_М2_V
  1

  4
Винт М2. Вид сверху.
  0
LWPOLYLINE
  5
779
330
777
100
AcDbEntity
  8
Пластина
100
AcDbPolyline
 90
        2
 70
     0
 43
0.0
 10
-1.401521566688217
 20
1.047968176094983
 10
1.047968176094968
 20
-1.401521566688209
  0
CIRCLE
  5
77A
330
777
100
AcDbEntity
  8
Пластина
100
AcDbCircle
 10
0.0
 20
0.0
 30
0.0
 40
1.75
  0
LWPOLYLINE
  5
77B
330
777
100
AcDbEntity
  8
Пластина
100
AcDbPolyline
 90
        2
 70
     0
 43
0.0
 10
1.401521566688245
 20
-1.047968176094947
 10
-1.04796817609494
 20
1.401521566688227
  0
ENDBLK
  5
77C
330
777
100
AcDbEntity
  8
0
100
AcDbBlockEnd
  0
BLOCK
  5
1430
330
142F
100
AcDbEntity
  8
0
100
AcDbBlockBegin
  2
*D4
 70
     1
 10
0.0
 20
0.0
 30
0.0
  3
*D4
  1

  0
LINE
  5
15B0
330
142F
100
AcDbEntity
  8
0
 62
     1
370
    -2
100
AcDbLine
 10
153.1061870196226
 20
87.50583686816444
 30
0.0
 11
176.6832029029705
 21
87.50583686816442
 31
0.0
  0
LINE
  5
15B1
330
142F
100
AcDbEntity
  8
0
 62
     1
370
    -2
100
AcDbLine
 10
157.1061870196225
 20
103.5058368681644
 30
0.0
 11
176.6832029029705
 21
103.5058368681644
 31
0.0
  0
LINE
  5
15B2
330
142F
100
AcDbEntity
  8
0
 62
     1
370
    -2
100
AcDbLine
 10
175.4332029029705
 20
91.50583686816442
 30
0.0
 11
175.4332029029705
 21
99.50583686816443
 31
0.0
  0
SOLID
  5
15B3
330
142F
100
AcDbEntity
  8
0
 62
     1
100
AcDbTrace
 10
174.7665362363038
 20
91.50583686816442
 30
0.0
 11
176.0998695696372
 21
91.50583686816442
 31
0.0
 12
175.4332029029705
 22
87.50583686816442
 32
0.0
 13
175.4332029029705
 23
87.50583686816442
 33
0.0
  0
SOLID
  5
15B4
330
142F
100
AcDbEntity
  8
0
 62
     1
100
AcDbTrace
 10
174.7665362363038
 20
99.50583686816443
 30
0.0
 11
176.0998695696372
 21
99.50583686816443
 31
0.0
 12
175.4332029029705
 22
103.5058368681644
 32
0.0
 13
175.4332029029705
 23
103.5058368681644
 33
0.0
  0
MTEXT
  5
15B5
330
142F
100
AcDbEntity
  8
0
 62
     1
100
AcDbMText
 10
170.4332029029705
 20
95.59596069263537
 30
0.0
 40
4.0
 41
0.0
 71
     2
 72
     1
  1
16
 11
0.0000000000000001
 21
1.0
 31
0.0
 73
     1
 44
1.0
  0
POINT
  5
15B6
330
142F
100
AcDbEntity
  8
Defpoints
 62
     0
100
AcDbPoint
 10
152.4811870196226
 20
87.50583686816444
 30
0.0
  0
POINT
  5
15B7
330
142F
100
AcDbEntity
  8
Defpoints
 62
     0
100
AcDbPoint
 10
156.4811870196225
 20
103.5058368681644
 30
0.0
  0
POINT
  5
15B8
330
142F
100
AcDbEntity
  8
Defpoints
 62
     0
100
AcDbPoint
 10
175.4332029029705
 20
103.5058368681644
 30
0.0
  0
ENDBLK
  5
1431
330
142F
100
AcDbEntity
  8
0
100
AcDbBlockEnd
  0
BLOCK
  5
143C
330
143B
100
AcDbEntity
  8
0
100
AcDbBlockBegin
  2
*D5
 70
     1
 10
0.0
 20
0.0
 30
0.0
  3
*D5
  1

  0
LINE
  5
15B9
330
143B
100
AcDbEntity
  8
0
 62
     1
370
    -2
100
AcDbLine
 10
156.4811870196226
 20
102.1308368681644
 30
0.0
 11
156.4811870196226
 21
118.9681240479241
 31
0.0
  0
LINE
  5
15BA
330
143B
100
AcDbEntity
  8
0
 62
     1
370
    -2
100
AcDbLine
 10
95.78118701962296
 20
100.5308368681645
 30
0.0
 11
95.78118701962296
 21
118.9681240479241
 31
0.0
  0
LINE
  5
15BB
330
143B
100
AcDbEntity
  8
0
 62
     1
370
    -2
100
AcDbLine
 10
152.4811870196226
 20
117.7181240479241
 30
0.0
 11
99.78118701962296
 21
117.7181240479241
 31
0.0
  0
SOLID
  5
15BC
330
143B
100
AcDbEntity
  8
0
 62
     1
100
AcDbTrace
 10
152.4811870196226
 20
118.3847907145908
 30
0.0
 11
152.4811870196226
 21
117.0514573812574
 31
0.0
 12
156.4811870196226
 22
117.7181240479241
 32
0.0
 13
156.4811870196226
 23
117.7181240479241
 33
0.0
  0
SOLID
  5
15BD
330
143B
100
AcDbEntity
  8
0
 62
     1
100
AcDbTrace
 10
99.78118701962296
 20
118.3847907145908
 30
0.0
 11
99.78118701962296
 21
117.0514573812574
 31
0.0
 12
95.78118701962296
 22
117.7181240479241
 32
0.0
 13
95.78118701962296
 23
117.7181240479241
 33
0.0
  0
MTEXT
  5
15BE
330
143B
100
AcDbEntity
  8
0
 62
     1
100
AcDbMText
 10
125.4447414271457
 20
123.3847907145907
 30
0.0
 40
4.0
 41
0.0
 71
     2
 72
     1
  1
60,7
 73
     1
 44
1.0
  0
POINT
  5
15BF
330
143B
100
AcDbEntity
  8
Defpoints
 62
     0
100
AcDbPoint
 10
156.4811870196226
 20
101.5058368681644
 30
0.0
  0
POINT
  5
15C0
330
143B
100
AcDbEntity
  8
Defpoints
 62
     0
100
AcDbPoint
 10
95.78118701962296
 20
99.90583686816457
 30
0.0
  0
POINT
  5
15C1
330
143B
100
AcDbEntity
  8
Defpoints
 62
     0
100
AcDbPoint
 10
95.78118701962296
 20
117.7181240479241
 30
0.0
  0
ENDBLK
  5
143D
330
143B
100
AcDbEntity
  8
0
100
AcDbBlockEnd
  0
BLOCK
  5
1448
330
1447
100
AcDbEntity
  8
0
100
AcDbBlockBegin
  2
*D6
 70
     1
 10
0.0
 20
0.0
 30
0.0
  3
*D6
  1

  0
LINE
  5
15C2
330
1447
100
AcDbEntity
  8
0
 62
     1
370
    -2
100
AcDbLine
 10
151.4061870196226
 20
87.50583686816458
 30
0.0
 11
186.7036896333622
 21
87.50583686816456
 31
0.0
  0
LINE
  5
15C3
330
1447
100
AcDbEntity
  8
0
 62
     1
370
    -2
100
AcDbLine
 10
157.1061870196226
 20
104.0058368681646
 30
0.0
 11
186.7036896333622
 21
104.0058368681645
 31
0.0
  0
LINE
  5
15C4
330
1447
100
AcDbEntity
  8
0
 62
     1
370
    -2
100
AcDbLine
 10
185.4536896333622
 20
91.50583686816457
 30
0.0
 11
185.4536896333622
 21
100.0058368681645
 31
0.0
  0
SOLID
  5
15C5
330
1447
100
AcDbEntity
  8
0
 62
     1
100
AcDbTrace
 10
184.7870229666955
 20
91.50583686816457
 30
0.0
 11
186.1203563000288
 21
91.50583686816457
 31
0.0
 12
185.4536896333622
 22
87.50583686816456
 32
0.0
 13
185.4536896333622
 23
87.50583686816456
 33
0.0
  0
SOLID
  5
15C6
330
1447
100
AcDbEntity
  8
0
 62
     1
100
AcDbTrace
 10
184.7870229666955
 20
100.0058368681645
 30
0.0
 11
186.1203563000288
 21
100.0058368681645
 31
0.0
 12
185.4536896333622
 22
104.0058368681645
 32
0.0
 13
185.4536896333622
 23
104.0058368681645
 33
0.0
  0
MTEXT
  5
15C7
330
1447
100
AcDbEntity
  8
0
 62
     1
100
AcDbMText
 10
179.7870229666955
 20
95.59596069263539
 30
0.0
 40
4.0
 41
0.0
 71
     2
 72
     1
  1
16,5
 11
0.0000000000000001
 21
1.0
 31
0.0
 73
     1
 44
1.0
  0
POINT
  5
15C8
330
1447
100
AcDbEntity
  8
Defpoints
 62
     0
100
AcDbPoint
 10
150.7811870196226
 20
87.50583686816458
 30
0.0
  0
POINT
  5
15C9
330
1447
100
AcDbEntity
  8
Defpoints
 62
     0
100
AcDbPoint
 10
156.4811870196226
 20
104.0058368681646
 30
0.0
  0
POINT
  5
15CA
330
1447
100
AcDbEntity
  8
Defpoints
 62
     0
100
AcDbPoint
 10
185.4536896333622
 20
104.0058368681645
 30
0.0
  0
ENDBLK
  5
1449
330
1447
100
AcDbEntity
  8
0
100
AcDbBlockEnd
  0
BLOCK
  5
1454
330
1453
100
AcDbEntity
  8
0
100
AcDbBlockBegin
  2
*D7
 70
     1
 10
0.0
 20
0.0
 30
0.0
  3
*D7
  1

  0
LINE
  5
1591
330
1453
100
AcDbEntity
  8
0
 62
     1
370
    -2
100
AcDbLine
 10
204.9875340497268
 20
148.1568925306007
 30
0.0
 11
216.8799198283775
 21
148.1568925306007
 31
0.0
  0
LINE
  5
1592
330
1453
100
AcDbEntity
  8
0
 62
     1
370
    -2
100
AcDbLine
 10
203.9275340497269
 20
164.1568925306007
 30
0.0
 11
216.8799198283775
 21
164.1568925306007
 31
0.0
  0
LINE
  5
1593
330
1453
100
AcDbEntity
  8
0
 62
     1
370
    -2
100
AcDbLine
 10
215.6299198283775
 20
152.1568925306007
 30
0.0
 11
215.6299198283775
 21
160.1568925306007
 31
0.0
  0
SOLID
  5
1594
330
1453
100
AcDbEntity
  8
0
 62
     1
100
AcDbTrace
 10
214.9632531617109
 20
152.1568925306007
 30
0.0
 11
216.2965864950442
 21
152.1568925306007
 31
0.0
 12
215.6299198283775
 22
148.1568925306007
 32
0.0
 13
215.6299198283775
 23
148.1568925306007
 33
0.0
  0
SOLID
  5
1595
330
1453
100
AcDbEntity
  8
0
 62
     1
100
AcDbTrace
 10
214.9632531617109
 20
160.1568925306007
 30
0.0
 11
216.2965864950442
 21
160.1568925306007
 31
0.0
 12
215.6299198283775
 22
164.1568925306007
 32
0.0
 13
215.6299198283775
 23
164.1568925306007
 33
0.0
  0
MTEXT
  5
1596
330
1453
100
AcDbEntity
  8
0
 62
     1
100
AcDbMText
 10
210.6299198283775
 20
155.9406132635697
 30
0.0
 40
4.0
 41
0.0
 71
     2
 72
     1
  1
16
 11
0.0000000000000001
 21
1.0
 31
0.0
 73
     1
 44
1.0
  0
POINT
  5
1597
330
1453
100
AcDbEntity
  8
Defpoints
 62
     0
100
AcDbPoint
 10
204.3625340497268
 20
148.1568925306007
 30
0.0
  0
POINT
  5
1598
330
1453
100
AcDbEntity
  8
Defpoints
 62
     0
100
AcDbPoint
 10
203.3025340497269
 20
164.1568925306007
 30
0.0
  0
POINT
  5
1599
330
1453
100
AcDbEntity
  8
Defpoints
 62
     0
100
AcDbPoint
 10
215.6299198283775
 20
164.1568925306007
 30
0.0
  0
ENDBLK
  5
1455
330
1453
100
AcDbEntity
  8
0
100
AcDbBlockEnd
  0
BLOCK
  5
1460
330
145F
100
AcDbEntity
  8
0
100
AcDbBlockBegin
  2
*D8
 70
     1
 10
0.0
 20
0.0
 30
0.0
  3
*D8
  1

  0
LINE
  5
15A5
330
145F
100
AcDbEntity
  8
0
 62
     1
370
    -2
100
AcDbLine
 10
196.3625340497268
 20
156.5918925306007
 30
0.0
 11
196.3625340497268
 21
126.4958537320167
 31
0.0
  0
LINE
  5
15A6
330
145F
100
AcDbEntity
  8
0
 62
     1
370
    -2
100
AcDbLine
 10
187.8625340497266
 20
147.5318925306007
 30
0.0
 11
187.8625340497266
 21
126.4958537320167
 31
0.0
  0
LINE
  5
15A7
330
145F
100
AcDbEntity
  8
0
 62
     1
370
    -2
100
AcDbLine
 10
183.8625340497266
 20
127.7458537320167
 30
0.0
 11
179.8625340497266
 21
127.7458537320167
 31
0.0
  0
LINE
  5
15A8
330
145F
100
AcDbEntity
  8
0
 62
     1
370
    -2
100
AcDbLine
 10
200.3625340497268
 20
127.7458537320167
 30
0.0
 11
215.0292007163935
 21
127.7458537320167
 31
0.0
  0
LINE
  5
15A9
330
145F
100
AcDbEntity
  8
0
 62
     1
370
    -2
100
AcDbLine
 10
187.8625340497266
 20
127.7458537320167
 30
0.0
 11
196.3625340497268
 21
127.7458537320167
 31
0.0
  0
SOLID
  5
15AA
330
145F
100
AcDbEntity
  8
0
 62
     1
100
AcDbTrace
 10
183.8625340497266
 20
128.4125203986834
 30
0.0
 11
183.8625340497266
 21
127.07918706535
 31
0.0
 12
187.8625340497266
 22
127.7458537320167
 32
0.0
 13
187.8625340497266
 23
127.7458537320167
 33
0.0
  0
SOLID
  5
15AB
330
145F
100
AcDbEntity
  8
0
 62
     1
100
AcDbTrace
 10
200.3625340497268
 20
128.4125203986834
 30
0.0
 11
200.3625340497268
 21
127.07918706535
 31
0.0
 12
196.3625340497268
 22
127.7458537320167
 32
0.0
 13
196.3625340497268
 23
127.7458537320167
 33
0.0
  0
MTEXT
  5
15AC
330
145F
100
AcDbEntity
  8
0
 62
     1
100
AcDbMText
 10
209.6958673830602
 20
133.4125203986834
 30
0.0
 40
4.0
 41
0.0
 71
     2
 72
     1
  1
8,5
 73
     1
 44
1.0
  0
POINT
  5
15AD
330
145F
100
AcDbEntity
  8
Defpoints
 62
     0
100
AcDbPoint
 10
196.3625340497268
 20
157.2168925306007
 30
0.0
  0
POINT
  5
15AE
330
145F
100
AcDbEntity
  8
Defpoints
 62
     0
100
AcDbPoint
 10
187.8625340497266
 20
148.1568925306007
 30
0.0
  0
POINT
  5
15AF
330
145F
100
AcDbEntity
  8
Defpoints
 62
     0
100
AcDbPoint
 10
187.8625340497266
 20
127.7458537320167
 30
0.0
  0
ENDBLK
  5
1461
330
145F
100
AcDbEntity
  8
0
100
AcDbBlockEnd
  0
BLOCK
  5
146D
330
146C
100
AcDbEntity
  8
0
100
AcDbBlockBegin
  2
*D9
 70
     1
 10
0.0
 20
0.0
 30
0.0
  3
*D9
  1

  0
LINE
  5
156B
330
146C
100
AcDbEntity
  8
0
 62
     1
370
    -2
100
AcDbLine
 10
187.8625340497268
 20
198.7818925306007
 30
0.0
 11
187.8625340497268
 21
210.7975415989997
 31
0.0
  0
LINE
  5
156C
330
146C
100
AcDbEntity
  8
0
 62
     1
370
    -2
100
AcDbLine
 10
204.3625340497268
 20
198.7818925306007
 30
0.0
 11
204.3625340497268
 21
210.7975415989997
 31
0.0
  0
LINE
  5
156D
330
146C
100
AcDbEntity
  8
0
 62
     1
370
    -2
100
AcDbLine
 10
191.8625340497268
 20
209.5475415989997
 30
0.0
 11
200.3625340497268
 21
209.5475415989997
 31
0.0
  0
SOLID
  5
156E
330
146C
100
AcDbEntity
  8
0
 62
     1
100
AcDbTrace
 10
191.8625340497268
 20
210.2142082656663
 30
0.0
 11
191.8625340497268
 21
208.880874932333
 31
0.0
 12
187.8625340497268
 22
209.5475415989997
 32
0.0
 13
187.8625340497268
 23
209.5475415989997
 33
0.0
  0
SOLID
  5
156F
330
146C
100
AcDbEntity
  8
0
 62
     1
100
AcDbTrace
 10
200.3625340497268
 20
210.2142082656663
 30
0.0
 11
200.3625340497268
 21
208.880874932333
 31
0.0
 12
204.3625340497268
 22
209.5475415989997
 32
0.0
 13
204.3625340497268
 23
209.5475415989997
 33
0.0
  0
MTEXT
  5
1570
330
146C
100
AcDbEntity
  8
0
 62
     1
100
AcDbMText
 10
195.5776698387553
 20
215.2142082656663
 30
0.0
 40
4.0
 41
0.0
 71
     2
 72
     1
  1
16,5
 73
     1
 44
1.0
  0
POINT
  5
1571
330
146C
100
AcDbEntity
  8
Defpoints
 62
     0
100
AcDbPoint
 10
187.8625340497268
 20
198.1568925306007
 30
0.0
  0
POINT
  5
1572
330
146C
100
AcDbEntity
  8
Defpoints
 62
     0
100
AcDbPoint
 10
204.3625340497268
 20
198.1568925306007
 30
0.0
  0
POINT
  5
1573
330
146C
100
AcDbEntity
  8
Defpoints
 62
     0
100
AcDbPoint
 10
204.3625340497268
 20
209.5475415989997
 30
0.0
  0
ENDBLK
  5
146E
330
146C
100
AcDbEntity
  8
0
100
AcDbBlockEnd
  0
BLOCK
  5
1479
330
1478
100
AcDbEntity
  8
0
100
AcDbBlockBegin
  2
*D10
 70
     1
 10
0.0
 20
0.0
 30
0.0
  3
*D10
  1

  0
LINE
  5
1586
330
1478
100
AcDbEntity
  8
0
 62
     1
370
    -2
100
AcDbLine
 10
58.1470478699232
 20
189.1568925306007
 30
0.0
 11
37.57979473775928
 21
189.1568925306007
 31
0.0
  0
LINE
  5
1587
330
1478
100
AcDbEntity
  8
0
 62
     1
370
    -2
100
AcDbLine
 10
50.89704786992308
 20
198.1568925306007
 30
0.0
 11
37.57979473775928
 21
198.1568925306007
 31
0.0
  0
LINE
  5
1588
330
1478
100
AcDbEntity
  8
0
 62
     1
370
    -2
100
AcDbLine
 10
38.82979473775927
 20
185.1568925306007
 30
0.0
 11
38.82979473775927
 21
181.1568925306007
 31
0.0
  0
LINE
  5
1589
330
1478
100
AcDbEntity
  8
0
 62
     1
370
    -2
100
AcDbLine
 10
38.82979473775927
 20
202.1568925306008
 30
0.0
 11
38.82979473775927
 21
206.1568925306008
 31
0.0
  0
LINE
  5
158A
330
1478
100
AcDbEntity
  8
0
 62
     1
370
    -2
100
AcDbLine
 10
38.82979473775927
 20
189.1568925306007
 30
0.0
 11
38.82979473775927
 21
198.1568925306007
 31
0.0
  0
SOLID
  5
158B
330
1478
100
AcDbEntity
  8
0
 62
     1
100
AcDbTrace
 10
38.16312807109261
 20
185.1568925306007
 30
0.0
 11
39.49646140442594
 21
185.1568925306007
 31
0.0
 12
38.82979473775927
 22
189.1568925306007
 32
0.0
 13
38.82979473775927
 23
189.1568925306007
 33
0.0
  0
SOLID
  5
158C
330
1478
100
AcDbEntity
  8
0
 62
     1
100
AcDbTrace
 10
38.16312807109261
 20
202.1568925306008
 30
0.0
 11
39.49646140442594
 21
202.1568925306008
 31
0.0
 12
38.82979473775927
 22
198.1568925306007
 32
0.0
 13
38.82979473775927
 23
198.1568925306007
 33
0.0
  0
MTEXT
  5
158D
330
1478
100
AcDbEntity
  8
0
 62
     1
100
AcDbMText
 10
33.82979473775924
 20
193.6568925306007
 30
0.0
 40
4.0
 41
0.0
 71
     2
 72
     1
  1
9
 11
0.0000000000000001
 21
1.0
 31
0.0
 73
     1
 44
1.0
  0
POINT
  5
158E
330
1478
100
AcDbEntity
  8
Defpoints
 62
     0
100
AcDbPoint
 10
58.7720478699232
 20
189.1568925306007
 30
0.0
  0
POINT
  5
158F
330
1478
100
AcDbEntity
  8
Defpoints
 62
     0
100
AcDbPoint
 10
51.52204786992308
 20
198.1568925306007
 30
0.0
  0
POINT
  5
1590
330
1478
100
AcDbEntity
  8
Defpoints
 62
     0
100
AcDbPoint
 10
38.82979473775927
 20
198.1568925306007
 30
0.0
  0
ENDBLK
  5
147A
330
1478
100
AcDbEntity
  8
0
100
AcDbBlockEnd
  0
BLOCK
  5
1486
330
1485
100
AcDbEntity
  8
0
100
AcDbBlockBegin
  2
*D11
 70
     1
 10
0.0
 20
0.0
 30
0.0
  3
*D11
  1

  0
LINE
  5
1574
330
1485
100
AcDbEntity
  8
0
 62
     1
370
    -2
100
AcDbLine
 10
106.4811870196229
 20
194.7818925306007
 30
0.0
 11
106.4811870196229
 21
212.4586010255033
 31
0.0
  0
LINE
  5
1575
330
1485
100
AcDbEntity
  8
0
 62
     1
370
    -2
100
AcDbLine
 10
156.4811870196225
 20
194.7818925306007
 30
0.0
 11
156.4811870196225
 21
212.4586010255033
 31
0.0
  0
LINE
  5
1576
330
1485
100
AcDbEntity
  8
0
 62
     1
370
    -2
100
AcDbLine
 10
110.4811870196229
 20
211.2086010255033
 30
0.0
 11
152.4811870196225
 21
211.2086010255033
 31
0.0
  0
SOLID
  5
1577
330
1485
100
AcDbEntity
  8
0
 62
     1
100
AcDbTrace
 10
110.4811870196229
 20
211.8752676921699
 30
0.0
 11
110.4811870196229
 21
210.5419343588366
 31
0.0
 12
106.4811870196229
 22
211.2086010255033
 32
0.0
 13
106.4811870196229
 23
211.2086010255033
 33
0.0
  0
SOLID
  5
1578
330
1485
100
AcDbEntity
  8
0
 62
     1
100
AcDbTrace
 10
152.4811870196225
 20
211.8752676921699
 30
0.0
 11
152.4811870196225
 21
210.5419343588366
 31
0.0
 12
156.4811870196225
 22
211.2086010255033
 32
0.0
 13
156.4811870196225
 23
211.2086010255033
 33
0.0
  0
MTEXT
  5
1579
330
1485
100
AcDbEntity
  8
0
 62
     1
100
AcDbMText
 10
130.8988291682082
 20
216.2086010255033
 30
0.0
 40
4.0
 41
0.0
 71
     2
 72
     1
  1
50
 73
     1
 44
1.0
  0
POINT
  5
157A
330
1485
100
AcDbEntity
  8
Defpoints
 62
     0
100
AcDbPoint
 10
106.4811870196229
 20
194.1568925306007
 30
0.0
  0
POINT
  5
157B
330
1485
100
AcDbEntity
  8
Defpoints
 62
     0
100
AcDbPoint
 10
156.4811870196225
 20
194.1568925306007
 30
0.0
  0
POINT
  5
157C
330
1485
100
AcDbEntity
  8
Defpoints
 62
     0
100
AcDbPoint
 10
156.4811870196225
 20
211.2086010255033
 30
0.0
  0
ENDBLK
  5
1487
330
1485
100
AcDbEntity
  8
0
100
AcDbBlockEnd
  0
BLOCK
  5
1492
330
1491
100
AcDbEntity
  8
0
100
AcDbBlockBegin
  2
*D12
 70
     1
 10
0.0
 20
0.0
 30
0.0
  3
*D12
  1

  0
LINE
  5
157D
330
1491
100
AcDbEntity
  8
0
 62
     1
370
    -2
100
AcDbLine
 10
153.1061870196226
 20
198.1568925306007
 30
0.0
 11
173.4153023074655
 21
198.1568925306007
 31
0.0
  0
LINE
  5
157E
330
1491
100
AcDbEntity
  8
0
 62
     1
370
    -2
100
AcDbLine
 10
153.1061870196226
 20
148.1568925306007
 30
0.0
 11
173.4153023074655
 21
148.1568925306007
 31
0.0
  0
LINE
  5
157F
330
1491
100
AcDbEntity
  8
0
 62
     1
370
    -2
100
AcDbLine
 10
172.1653023074655
 20
194.1568925306007
 30
0.0
 11
172.1653023074655
 21
152.1568925306007
 31
0.0
  0
SOLID
  5
1580
330
1491
100
AcDbEntity
  8
0
 62
     1
100
AcDbTrace
 10
171.4986356407989
 20
194.1568925306007
 30
0.0
 11
172.8319689741322
 21
194.1568925306007
 31
0.0
 12
172.1653023074655
 22
198.1568925306007
 32
0.0
 13
172.1653023074655
 23
198.1568925306007
 33
0.0
  0
SOLID
  5
1581
330
1491
100
AcDbEntity
  8
0
 62
     1
100
AcDbTrace
 10
171.4986356407988
 20
152.1568925306007
 30
0.0
 11
172.8319689741321
 21
152.1568925306007
 31
0.0
 12
172.1653023074655
 22
148.1568925306007
 32
0.0
 13
172.1653023074655
 23
148.1568925306007
 33
0.0
  0
MTEXT
  5
1582
330
1491
100
AcDbEntity
  8
0
 62
     1
100
AcDbMText
 10
167.1653023074655
 20
171.7834140893099
 30
0.0
 40
4.0
 41
0.0
 71
     2
 72
     1
  1
50
 11
0.0000000000000001
 21
1.0
 31
0.0
 73
     1
 44
1.0
  0
POINT
  5
1583
330
1491
100
AcDbEntity
  8
Defpoints
 62
     0
100
AcDbPoint
 10
152.4811870196226
 20
198.1568925306007
 30
0.0
  0
POINT
  5
1584
330
1491
100
AcDbEntity
  8
Defpoints
 62
     0
100
AcDbPoint
 10
152.4811870196226
 20
148.1568925306007
 30
0.0
  0
POINT
  5
1585
330
1491
100
AcDbEntity
  8
Defpoints
 62
     0
100
AcDbPoint
 10
172.1653023074655
 20
148.1568925306007
 30
0.0
  0
ENDBLK
  5
1493
330
1491
100
AcDbEntity
  8
0
100
AcDbBlockEnd
  0
BLOCK
  5
1780
330
177F
100
AcDbEntity
  8
0
100
AcDbBlockBegin
  2
*D13
 70
     1
 10
0.0
 20
0.0
 30
0.0
  3
*D13
  1

  0
LINE
  5
1CC2
330
177F
100
AcDbEntity
  8
0
 62
     1
370
    -2
100
AcDbLine
 10
718.2583901303744
 20
194.6118939739571
 30
0.0
 11
779.1283677516714
 21
145.167776601397
 31
0.0
  0
LINE
  5
1CC3
330
177F
100
AcDbEntity
  8
0
 62
     1
370
    -2
100
AcDbLine
 10
791.2369210654487
 20
135.3321112265368
 30
0.0
 11
795.8940820561926
 21
131.5491426162661
 31
0.0
  0
MTEXT
  5
1CC4
102
{ACAD_XDICTIONARY
360
1D65
102
}
330
177F
100
AcDbEntity
  8
0
 62
     1
100
AcDbMText
 10
748.9708434882818
 20
174.9895860531026
 30
0.0
 40
6.000000000000001
 41
0.0
 71
     5
 72
     1
  1
2{\fProxy 1|b0|i0|c204|p0;hole} \U+22053,6/%%c6x7
  7
GOSTw
 11
0.7761934984573116
 21
-0.6304947683784534
 31
0.0
 73
     1
 44
1.0
  0
LINE
  5
1CC5
330
177F
100
AcDbEntity
  8
0
 62
     1
370
    -2
100
AcDbLine
 10
786.5797600747048
 20
139.1150798368075
 30
0.0
 11
783.7855287424154
 21
141.3848079911263
 31
0.0
  0
SOLID
  5
1CC6
330
177F
100
AcDbEntity
  8
0
 62
     1
100
AcDbTrace
 10
791.8674158338271
 20
136.1083047249942
 30
0.0
 11
790.6064262970703
 21
134.5559177280795
 31
0.0
 12
786.5797600747048
 22
139.1150798368075
 32
0.0
 13
786.5797600747048
 23
139.1150798368075
 33
0.0
  0
SOLID
  5
1CC7
330
177F
100
AcDbEntity
  8
0
 62
     1
100
AcDbTrace
 10
779.7588625200498
 20
145.9439700998544
 30
0.0
 11
778.497872983293
 21
144.3915831029397
 31
0.0
 12
783.7855287424154
 22
141.3848079911263
 32
0.0
 13
783.7855287424154
 23
141.3848079911263
 33
0.0
  0
POINT
  5
1CC8
330
177F
100
AcDbEntity
  8
Defpoints
 62
     0
100
AcDbPoint
 10
783.7855287424154
 20
141.3848079911263
 30
0.0
  0
POINT
  5
1CC9
330
177F
100
AcDbEntity
  8
Defpoints
 62
     0
100
AcDbPoint
 10
786.5797600747048
 20
139.1150798368075
 30
0.0
  0
ENDBLK
  5
1781
330
177F
100
AcDbEntity
  8
0
100
AcDbBlockEnd
  0
BLOCK
  5
18D7
330
18D6
100
AcDbEntity
  8
0
100
AcDbBlockBegin
  2
*D14
 70
     1
 10
0.0
 20
0.0
 30
0.0
  3
*D14
  1

  0
LINE
  5
19A5
330
18D6
100
AcDbEntity
  8
0
 62
     1
370
    -2
100
AcDbLine
 10
660.9243273382767
 20
117.3629090083178
 30
0.0
 11
640.3299290314116
 21
117.3629090083178
 31
0.0
  0
LINE
  5
19A6
330
18D6
100
AcDbEntity
  8
0
 62
     1
370
    -2
100
AcDbLine
 10
664.5243265002796
 20
178.062910203391
 30
0.0
 11
640.3299290314116
 21
178.062910203391
 31
0.0
  0
LINE
  5
19A7
330
18D6
100
AcDbEntity
  8
0
 62
     1
370
    -2
100
AcDbLine
 10
641.5799290314116
 20
121.3629090083178
 30
0.0
 11
641.5799290314116
 21
174.0629102033909
 31
0.0
  0
SOLID
  5
19A8
330
18D6
100
AcDbEntity
  8
0
 62
     1
100
AcDbTrace
 10
640.913262364745
 20
121.3629090083178
 30
0.0
 11
642.2465956980783
 21
121.3629090083178
 31
0.0
 12
641.5799290314116
 22
117.3629090083178
 32
0.0
 13
641.5799290314116
 23
117.3629090083178
 33
0.0
  0
SOLID
  5
19A9
330
18D6
100
AcDbEntity
  8
0
 62
     1
100
AcDbTrace
 10
640.913262364745
 20
174.0629102033909
 30
0.0
 11
642.2465956980783
 21
174.0629102033909
 31
0.0
 12
641.5799290314116
 22
178.062910203391
 32
0.0
 13
641.5799290314116
 23
178.062910203391
 33
0.0
  0
MTEXT
  5
19AA
330
18D6
100
AcDbEntity
  8
0
 62
     1
100
AcDbMText
 10
635.9132623647449
 20
147.96710059544
 30
0.0
 40
4.0
 41
0.0
 71
     2
 72
     1
  1
60,7
 11
0.0000000000000001
 21
1.0
 31
0.0
 73
     1
 44
1.0
  0
POINT
  5
19AB
330
18D6
100
AcDbEntity
  8
Defpoints
 62
     0
100
AcDbPoint
 10
661.5493273382767
 20
117.3629090083178
 30
0.0
  0
POINT
  5
19AC
330
18D6
100
AcDbEntity
  8
Defpoints
 62
     0
100
AcDbPoint
 10
665.1493265002796
 20
178.062910203391
 30
0.0
  0
POINT
  5
19AD
330
18D6
100
AcDbEntity
  8
Defpoints
 62
     0
100
AcDbPoint
 10
641.5799290314116
 20
178.062910203391
 30
0.0
  0
ENDBLK
  5
18D8
330
18D6
100
AcDbEntity
  8
0
100
AcDbBlockEnd
  0
BLOCK
  5
1965
330
1964
100
AcDbEntity
  8
0
100
AcDbBlockBegin
  2
*D15
 70
     1
 10
0.0
 20
0.0
 30
0.0
  3
*D15
  1

  0
LINE
  5
199C
330
1964
100
AcDbEntity
  8
0
 62
     1
370
    -2
100
AcDbLine
 10
678.0493269383736
 20
167.9879078907307
 30
0.0
 11
678.0493269383736
 21
194.1657028423806
 31
0.0
  0
LINE
  5
199D
330
1964
100
AcDbEntity
  8
0
 62
     1
370
    -2
100
AcDbLine
 10
661.5493270277806
 20
167.9879078907307
 30
0.0
 11
661.5493270277806
 21
194.1657028423806
 31
0.0
  0
LINE
  5
199E
330
1964
100
AcDbEntity
  8
0
 62
     1
370
    -2
100
AcDbLine
 10
674.0493269383736
 20
192.9157028423806
 30
0.0
 11
665.5493270277806
 21
192.9157028423806
 31
0.0
  0
SOLID
  5
199F
330
1964
100
AcDbEntity
  8
0
 62
     1
100
AcDbTrace
 10
674.0493269383736
 20
193.5823695090473
 30
0.0
 11
674.0493269383736
 21
192.249036175714
 31
0.0
 12
678.0493269383736
 22
192.9157028423806
 32
0.0
 13
678.0493269383736
 23
192.9157028423806
 33
0.0
  0
SOLID
  5
19A0
330
1964
100
AcDbEntity
  8
0
 62
     1
100
AcDbTrace
 10
665.5493270277806
 20
193.5823695090473
 30
0.0
 11
665.5493270277806
 21
192.249036175714
 31
0.0
 12
661.5493270277806
 22
192.9157028423806
 32
0.0
 13
661.5493270277806
 23
192.9157028423806
 33
0.0
  0
MTEXT
  5
19A1
330
1964
100
AcDbEntity
  8
0
 62
     1
100
AcDbMText
 10
669.7993269830771
 20
196.249036175714
 30
0.0
 40
4.0
 41
0.0
 71
     5
 72
     1
  1
16,5
 73
     1
 44
1.0
  0
POINT
  5
19A2
330
1964
100
AcDbEntity
  8
Defpoints
 62
     0
100
AcDbPoint
 10
678.0493269383736
 20
167.3629078907307
 30
0.0
  0
POINT
  5
19A3
330
1964
100
AcDbEntity
  8
Defpoints
 62
     0
100
AcDbPoint
 10
661.5493270277806
 20
167.3629078907307
 30
0.0
  0
POINT
  5
19A4
330
1964
100
AcDbEntity
  8
Defpoints
 62
     0
100
AcDbPoint
 10
661.5493270277806
 20
192.9157028423806
 30
0.0
  0
ENDBLK
  5
1966
330
1964
100
AcDbEntity
  8
0
100
AcDbBlockEnd
  0
BLOCK
  5
1972
330
1971
100
AcDbEntity
  8
0
100
AcDbBlockBegin
  2
*D16
 70
     1
 10
0.0
 20
0.0
 30
0.0
  3
*D16
  1

  0
LINE
  5
1991
330
1971
100
AcDbEntity
  8
0
 62
     1
370
    -2
100
AcDbLine
 10
677.5493277877398
 20
158.7379103047188
 30
0.0
 11
677.5493277877398
 21
148.6019229590501
 31
0.0
  0
LINE
  5
1992
330
1971
100
AcDbEntity
  8
0
 62
     1
370
    -2
100
AcDbLine
 10
678.0493269383736
 20
158.7379103047188
 30
0.0
 11
678.0493269383736
 21
148.6019229590501
 31
0.0
  0
LINE
  5
1993
330
1971
100
AcDbEntity
  8
0
 62
     1
370
    -2
100
AcDbLine
 10
673.5493277877398
 20
149.8519229590501
 30
0.0
 11
669.5493277877398
 21
149.8519229590501
 31
0.0
  0
LINE
  5
1994
330
1971
100
AcDbEntity
  8
0
 62
     1
370
    -2
100
AcDbLine
 10
682.0493269383736
 20
149.8519229590501
 30
0.0
 11
696.0493269383736
 21
149.8519229590501
 31
0.0
  0
LINE
  5
1995
330
1971
100
AcDbEntity
  8
0
 62
     1
370
    -2
100
AcDbLine
 10
677.5493277877398
 20
149.8519229590501
 30
0.0
 11
678.0493269383736
 21
149.8519229590501
 31
0.0
  0
SOLID
  5
1996
330
1971
100
AcDbEntity
  8
0
 62
     1
100
AcDbTrace
 10
673.5493277877398
 20
150.5185896257168
 30
0.0
 11
673.5493277877398
 21
149.1852562923834
 31
0.0
 12
677.5493277877398
 22
149.8519229590501
 32
0.0
 13
677.5493277877398
 23
149.8519229590501
 33
0.0
  0
SOLID
  5
1997
330
1971
100
AcDbEntity
  8
0
 62
     1
100
AcDbTrace
 10
682.0493269383736
 20
150.5185896257168
 30
0.0
 11
682.0493269383736
 21
149.1852562923834
 31
0.0
 12
678.0493269383736
 22
149.8519229590501
 32
0.0
 13
678.0493269383736
 23
149.8519229590501
 33
0.0
  0
MTEXT
  5
1998
330
1971
100
AcDbEntity
  8
0
 62
     1
100
AcDbMText
 10
691.0493269383736
 20
153.1852562923834
 30
0.0
 40
4.0
 41
0.0
 71
     5
 72
     1
  1
0,5
 73
     1
 44
1.0
  0
POINT
  5
1999
330
1971
100
AcDbEntity
  8
Defpoints
 62
     0
100
AcDbPoint
 10
677.5493277877398
 20
159.3629103047188
 30
0.0
  0
POINT
  5
199A
330
1971
100
AcDbEntity
  8
Defpoints
 62
     0
100
AcDbPoint
 10
678.0493269383736
 20
159.3629103047188
 30
0.0
  0
POINT
  5
199B
330
1971
100
AcDbEntity
  8
Defpoints
 62
     0
100
AcDbPoint
 10
678.0493269383736
 20
149.8519229590501
 30
0.0
  0
ENDBLK
  5
1973
330
1971
100
AcDbEntity
  8
0
100
AcDbBlockEnd
  0
BLOCK
  5
1AD1
330
1AD0
100
AcDbEntity
  8
0
100
AcDbBlockBegin
  2
*D17
 70
     1
 10
0.0
 20
0.0
 30
0.0
  3
*D17
  1

  0
LINE
  5
1CCA
330
1AD0
100
AcDbEntity
  8
0
 62
     1
370
    -2
100
AcDbLine
 10
827.8186633942917
 20
186.2435013526243
 30
0.0
 11
857.9399449667064
 21
186.2435013526243
 31
0.0
  0
LINE
  5
1CCB
330
1AD0
100
AcDbEntity
  8
0
 62
     1
370
    -2
100
AcDbLine
 10
827.8186633942917
 20
136.2435013526246
 30
0.0
 11
857.9399449667064
 21
136.2435013526246
 31
0.0
  0
LINE
  5
1CCC
330
1AD0
100
AcDbEntity
  8
0
 62
     1
370
    -2
100
AcDbLine
 10
856.6899449667063
 20
182.2435013526243
 30
0.0
 11
856.6899449667063
 21
140.2435013526246
 31
0.0
  0
SOLID
  5
1CCD
330
1AD0
100
AcDbEntity
  8
0
 62
     1
100
AcDbTrace
 10
856.0232783000397
 20
182.2435013526243
 30
0.0
 11
857.3566116333731
 21
182.2435013526243
 31
0.0
 12
856.6899449667063
 22
186.2435013526243
 32
0.0
 13
856.6899449667063
 23
186.2435013526243
 33
0.0
  0
SOLID
  5
1CCE
330
1AD0
100
AcDbEntity
  8
0
 62
     1
100
AcDbTrace
 10
856.0232783000397
 20
140.2435013526246
 30
0.0
 11
857.3566116333731
 21
140.2435013526246
 31
0.0
 12
856.6899449667063
 22
136.2435013526246
 32
0.0
 13
856.6899449667063
 23
136.2435013526246
 33
0.0
  0
MTEXT
  5
1CCF
330
1AD0
100
AcDbEntity
  8
0
 62
     1
100
AcDbMText
 10
851.6899449667064
 20
154.1278388291012
 30
0.0
 40
4.0
 41
0.0
 71
     2
 72
     1
  1
50
 11
0.0000000000000001
 21
1.0
 31
0.0
 73
     1
 44
1.0
  0
POINT
  5
1CD0
330
1AD0
100
AcDbEntity
  8
Defpoints
 62
     0
100
AcDbPoint
 10
827.1936633942917
 20
186.2435013526243
 30
0.0
  0
POINT
  5
1CD1
330
1AD0
100
AcDbEntity
  8
Defpoints
 62
     0
100
AcDbPoint
 10
827.1936633942917
 20
136.2435013526246
 30
0.0
  0
POINT
  5
1CD2
330
1AD0
100
AcDbEntity
  8
Defpoints
 62
     0
100
AcDbPoint
 10
856.6899449667063
 20
136.2435013526246
 30
0.0
  0
ENDBLK
  5
1AD2
330
1AD0
100
AcDbEntity
  8
0
100
AcDbBlockEnd
  0
BLOCK
  5
1ADD
330
1ADC
100
AcDbEntity
  8
0
100
AcDbBlockBegin
  2
*D18
 70
     1
 10
0.0
 20
0.0
 30
0.0
  3
*D18
  1

  0
LINE
  5
1CD3
330
1ADC
100
AcDbEntity
  8
0
 62
     1
370
    -2
100
AcDbLine
 10
831.1936633942917
 20
139.6185013526245
 30
0.0
 11
831.1936633942917
 21
112.6540916102608
 31
0.0
  0
LINE
  5
1CD4
330
1ADC
100
AcDbEntity
  8
0
 62
     1
370
    -2
100
AcDbLine
 10
781.1936633942917
 20
139.6185013526245
 30
0.0
 11
781.1936633942917
 21
112.6540916102608
 31
0.0
  0
LINE
  5
1CD5
330
1ADC
100
AcDbEntity
  8
0
 62
     1
370
    -2
100
AcDbLine
 10
827.1936633942917
 20
113.9040916102608
 30
0.0
 11
785.1936633942917
 21
113.9040916102608
 31
0.0
  0
SOLID
  5
1CD6
330
1ADC
100
AcDbEntity
  8
0
 62
     1
100
AcDbTrace
 10
827.1936633942917
 20
114.5707582769275
 30
0.0
 11
827.1936633942917
 21
113.2374249435942
 31
0.0
 12
831.1936633942917
 22
113.9040916102608
 32
0.0
 13
831.1936633942917
 23
113.9040916102608
 33
0.0
  0
SOLID
  5
1CD7
330
1ADC
100
AcDbEntity
  8
0
 62
     1
100
AcDbTrace
 10
785.1936633942917
 20
114.5707582769275
 30
0.0
 11
785.1936633942917
 21
113.2374249435942
 31
0.0
 12
781.1936633942917
 22
113.9040916102608
 32
0.0
 13
781.1936633942917
 23
113.9040916102608
 33
0.0
  0
MTEXT
  5
1CD8
330
1ADC
100
AcDbEntity
  8
0
 62
     1
100
AcDbMText
 10
799.3829861962938
 20
118.9040916102608
 30
0.0
 40
4.0
 41
0.0
 71
     2
 72
     1
  1
50
 73
     1
 44
1.0
  0
POINT
  5
1CD9
330
1ADC
100
AcDbEntity
  8
Defpoints
 62
     0
100
AcDbPoint
 10
831.1936633942917
 20
140.2435013526245
 30
0.0
  0
POINT
  5
1CDA
330
1ADC
100
AcDbEntity
  8
Defpoints
 62
     0
100
AcDbPoint
 10
781.1936633942917
 20
140.2435013526245
 30
0.0
  0
POINT
  5
1CDB
330
1ADC
100
AcDbEntity
  8
Defpoints
 62
     0
100
AcDbPoint
 10
781.1936633942917
 20
113.9040916102608
 30
0.0
  0
ENDBLK
  5
1ADE
330
1ADC
100
AcDbEntity
  8
0
100
AcDbBlockEnd
  0
BLOCK
  5
1B1C
330
1B1B
100
AcDbEntity
  8
0
100
AcDbBlockBegin
  2
*D19
 70
     1
 10
0.0
 20
0.0
 30
0.0
  3
*D19
  1

  0
LINE
  5
1CDC
330
1B1B
100
AcDbEntity
  8
0
 62
     1
370
    -2
100
AcDbLine
 10
785.193663394292
 20
137.1185013526244
 30
0.0
 11
785.193663394292
 21
122.5601270105304
 31
0.0
  0
LINE
  5
1CDD
330
1B1B
100
AcDbEntity
  8
0
 62
     1
370
    -2
100
AcDbLine
 10
781.1936630217627
 20
139.6185013478597
 30
0.0
 11
781.1936630217627
 21
122.5601270105304
 31
0.0
  0
LINE
  5
1CDE
330
1B1B
100
AcDbEntity
  8
0
 62
     1
370
    -2
100
AcDbLine
 10
789.1936633942919
 20
123.8101270105304
 30
0.0
 11
793.1936633942919
 21
123.8101270105304
 31
0.0
  0
LINE
  5
1CDF
330
1B1B
100
AcDbEntity
  8
0
 62
     1
370
    -2
100
AcDbLine
 10
777.1936630217627
 20
123.8101270105304
 30
0.0
 11
768.5269963550961
 21
123.8101270105304
 31
0.0
  0
LINE
  5
1CE0
330
1B1B
100
AcDbEntity
  8
0
 62
     1
370
    -2
100
AcDbLine
 10
785.193663394292
 20
123.8101270105304
 30
0.0
 11
781.1936630217627
 21
123.8101270105304
 31
0.0
  0
SOLID
  5
1CE1
330
1B1B
100
AcDbEntity
  8
0
 62
     1
100
AcDbTrace
 10
789.1936633942919
 20
124.476793677197
 30
0.0
 11
789.1936633942919
 21
123.1434603438637
 31
0.0
 12
785.193663394292
 22
123.8101270105304
 32
0.0
 13
785.193663394292
 23
123.8101270105304
 33
0.0
  0
SOLID
  5
1CE2
330
1B1B
100
AcDbEntity
  8
0
 62
     1
100
AcDbTrace
 10
777.1936630217627
 20
124.476793677197
 30
0.0
 11
777.1936630217627
 21
123.1434603438637
 31
0.0
 12
781.1936630217627
 22
123.8101270105304
 32
0.0
 13
781.1936630217627
 23
123.8101270105304
 33
0.0
  0
MTEXT
  5
1CE3
330
1B1B
100
AcDbEntity
  8
0
 62
     1
100
AcDbMText
 10
770.8603296884294
 20
126.8101270105304
 30
0.0
 40
4.0
 41
0.0
 71
     5
 72
     1
  1
4
 73
     1
 44
1.0
  0
POINT
  5
1CE4
330
1B1B
100
AcDbEntity
  8
Defpoints
 62
     0
100
AcDbPoint
 10
785.193663394292
 20
137.7435013526244
 30
0.0
  0
POINT
  5
1CE5
330
1B1B
100
AcDbEntity
  8
Defpoints
 62
     0
100
AcDbPoint
 10
781.1936630217627
 20
140.2435013478597
 30
0.0
  0
POINT
  5
1CE6
330
1B1B
100
AcDbEntity
  8
Defpoints
 62
     0
100
AcDbPoint
 10
781.1936630217627
 20
123.8101270105304
 30
0.0
  0
ENDBLK
  5
1B1D
330
1B1B
100
AcDbEntity
  8
0
100
AcDbBlockEnd
  0
BLOCK
  5
1B2B
330
1B2A
100
AcDbEntity
  8
0
100
AcDbBlockBegin
  2
*D20
 70
     1
 10
0.0
 20
0.0
 30
0.0
  3
*D20
  1

  0
LINE
  5
1CE7
330
1B2A
100
AcDbEntity
  8
0
 62
     1
370
    -2
100
AcDbLine
 10
785.193663394292
 20
137.1185013526244
 30
0.0
 11
785.193663394292
 21
122.5601270105304
 31
0.0
  0
LINE
  5
1CE8
330
1B2A
100
AcDbEntity
  8
0
 62
     1
370
    -2
100
AcDbLine
 10
827.1936633942916
 20
179.1185013526243
 30
0.0
 11
827.1936633942916
 21
122.5601270105304
 31
0.0
  0
LINE
  5
1CE9
330
1B2A
100
AcDbEntity
  8
0
 62
     1
370
    -2
100
AcDbLine
 10
789.1936633942919
 20
123.8101270105304
 30
0.0
 11
823.1936633942916
 21
123.8101270105304
 31
0.0
  0
SOLID
  5
1CEA
330
1B2A
100
AcDbEntity
  8
0
 62
     1
100
AcDbTrace
 10
789.1936633942919
 20
124.476793677197
 30
0.0
 11
789.1936633942919
 21
123.1434603438637
 31
0.0
 12
785.193663394292
 22
123.8101270105304
 32
0.0
 13
785.193663394292
 23
123.8101270105304
 33
0.0
  0
SOLID
  5
1CEB
330
1B2A
100
AcDbEntity
  8
0
 62
     1
100
AcDbTrace
 10
823.1936633942916
 20
124.476793677197
 30
0.0
 11
823.1936633942916
 21
123.1434603438637
 31
0.0
 12
827.1936633942916
 22
123.8101270105304
 32
0.0
 13
827.1936633942916
 23
123.8101270105304
 33
0.0
  0
MTEXT
  5
1CEC
330
1B2A
100
AcDbEntity
  8
0
 62
     1
100
AcDbMText
 10
806.1936633942918
 20
126.8101270105304
 30
0.0
 40
4.0
 41
0.0
 71
     5
 72
     1
  1
42
 73
     1
 44
1.0
  0
POINT
  5
1CED
330
1B2A
100
AcDbEntity
  8
Defpoints
 62
     0
100
AcDbPoint
 10
785.193663394292
 20
137.7435013526244
 30
0.0
  0
POINT
  5
1CEE
330
1B2A
100
AcDbEntity
  8
Defpoints
 62
     0
100
AcDbPoint
 10
827.1936633942916
 20
179.7435013526243
 30
0.0
  0
POINT
  5
1CEF
330
1B2A
100
AcDbEntity
  8
Defpoints
 62
     0
100
AcDbPoint
 10
827.1936633942916
 20
123.8101270105304
 30
0.0
  0
ENDBLK
  5
1B2C
330
1B2A
100
AcDbEntity
  8
0
100
AcDbBlockEnd
  0
BLOCK
  5
1B67
330
1B66
100
AcDbEntity
  8
0
100
AcDbBlockBegin
  2
*D21
 70
     1
 10
0.0
 20
0.0
 30
0.0
  3
*D21
  1

  0
LINE
  5
1CF0
330
1B66
100
AcDbEntity
  8
0
 62
     1
370
    -2
100
AcDbLine
 10
788.318663394292
 20
140.2435013526244
 30
0.0
 11
848.0967949409649
 21
140.2435013526244
 31
0.0
  0
LINE
  5
1CF1
330
1B66
100
AcDbEntity
  8
0
 62
     1
370
    -2
100
AcDbLine
 10
827.8186633942917
 20
136.2435016235312
 30
0.0
 11
848.0967949409649
 21
136.2435016235311
 31
0.0
  0
LINE
  5
1CF2
330
1B66
100
AcDbEntity
  8
0
 62
     1
370
    -2
100
AcDbLine
 10
846.8467949409648
 20
144.2435013526244
 30
0.0
 11
846.8467949409648
 21
148.2435013526244
 31
0.0
  0
LINE
  5
1CF3
330
1B66
100
AcDbEntity
  8
0
 62
     1
370
    -2
100
AcDbLine
 10
846.8467949409648
 20
132.2435016235311
 30
0.0
 11
846.8467949409648
 21
123.5768349568645
 31
0.0
  0
LINE
  5
1CF4
330
1B66
100
AcDbEntity
  8
0
 62
     1
370
    -2
100
AcDbLine
 10
846.8467949409648
 20
140.2435013526244
 30
0.0
 11
846.8467949409648
 21
136.2435016235311
 31
0.0
  0
SOLID
  5
1CF5
330
1B66
100
AcDbEntity
  8
0
 62
     1
100
AcDbTrace
 10
846.1801282742982
 20
144.2435013526244
 30
0.0
 11
847.5134616076314
 21
144.2435013526244
 31
0.0
 12
846.8467949409648
 22
140.2435013526244
 32
0.0
 13
846.8467949409648
 23
140.2435013526244
 33
0.0
  0
SOLID
  5
1CF6
330
1B66
100
AcDbEntity
  8
0
 62
     1
100
AcDbTrace
 10
846.1801282742982
 20
132.2435016235311
 30
0.0
 11
847.5134616076314
 21
132.2435016235311
 31
0.0
 12
846.8467949409648
 22
136.2435016235311
 32
0.0
 13
846.8467949409648
 23
136.2435016235311
 33
0.0
  0
MTEXT
  5
1CF7
330
1B66
100
AcDbEntity
  8
0
 62
     1
100
AcDbMText
 10
843.8467949409648
 20
125.9101682901979
 30
0.0
 40
4.0
 41
0.0
 71
     5
 72
     1
  1
4
 11
0.0000000000000001
 21
1.0
 31
0.0
 73
     1
 44
1.0
  0
POINT
  5
1CF8
330
1B66
100
AcDbEntity
  8
Defpoints
 62
     0
100
AcDbPoint
 10
787.693663394292
 20
140.2435013526244
 30
0.0
  0
POINT
  5
1CF9
330
1B66
100
AcDbEntity
  8
Defpoints
 62
     0
100
AcDbPoint
 10
827.1936633942916
 20
136.2435016235312
 30
0.0
  0
POINT
  5
1CFA
330
1B66
100
AcDbEntity
  8
Defpoints
 62
     0
100
AcDbPoint
 10
846.8467949409648
 20
136.2435016235311
 30
0.0
  0
ENDBLK
  5
1B68
330
1B66
100
AcDbEntity
  8
0
100
AcDbBlockEnd
  0
BLOCK
  5
1B76
330
1B75
100
AcDbEntity
  8
0
100
AcDbBlockBegin
  2
*D22
 70
     1
 10
0.0
 20
0.0
 30
0.0
  3
*D22
  1

  0
LINE
  5
1CFB
330
1B75
100
AcDbEntity
  8
0
 62
     1
370
    -2
100
AcDbLine
 10
788.318663394292
 20
140.2435013526244
 30
0.0
 11
848.0967949409649
 21
140.2435013526244
 31
0.0
  0
LINE
  5
1CFC
330
1B75
100
AcDbEntity
  8
0
 62
     1
370
    -2
100
AcDbLine
 10
830.3186633942916
 20
182.2435013526243
 30
0.0
 11
848.0967949409649
 21
182.2435013526243
 31
0.0
  0
LINE
  5
1CFD
330
1B75
100
AcDbEntity
  8
0
 62
     1
370
    -2
100
AcDbLine
 10
846.8467949409648
 20
144.2435013526244
 30
0.0
 11
846.8467949409648
 21
178.2435013526243
 31
0.0
  0
SOLID
  5
1CFE
330
1B75
100
AcDbEntity
  8
0
 62
     1
100
AcDbTrace
 10
846.1801282742982
 20
144.2435013526244
 30
0.0
 11
847.5134616076314
 21
144.2435013526244
 31
0.0
 12
846.8467949409648
 22
140.2435013526244
 32
0.0
 13
846.8467949409648
 23
140.2435013526244
 33
0.0
  0
SOLID
  5
1CFF
330
1B75
100
AcDbEntity
  8
0
 62
     1
100
AcDbTrace
 10
846.1801282742982
 20
178.2435013526243
 30
0.0
 11
847.5134616076314
 21
178.2435013526243
 31
0.0
 12
846.8467949409648
 22
182.2435013526243
 32
0.0
 13
846.8467949409648
 23
182.2435013526243
 33
0.0
  0
MTEXT
  5
1D00
330
1B75
100
AcDbEntity
  8
0
 62
     1
100
AcDbMText
 10
843.8467949409648
 20
161.2435013526245
 30
0.0
 40
4.0
 41
0.0
 71
     5
 72
     1
  1
42
 11
0.0000000000000001
 21
1.0
 31
0.0
 73
     1
 44
1.0
  0
POINT
  5
1D01
330
1B75
100
AcDbEntity
  8
Defpoints
 62
     0
100
AcDbPoint
 10
787.693663394292
 20
140.2435013526244
 30
0.0
  0
POINT
  5
1D02
330
1B75
100
AcDbEntity
  8
Defpoints
 62
     0
100
AcDbPoint
 10
829.6936633942916
 20
182.2435013526243
 30
0.0
  0
POINT
  5
1D03
330
1B75
100
AcDbEntity
  8
Defpoints
 62
     0
100
AcDbPoint
 10
846.8467949409648
 20
182.2435013526243
 30
0.0
  0
ENDBLK
  5
1B77
330
1B75
100
AcDbEntity
  8
0
100
AcDbBlockEnd
  0
BLOCK
  5
1B8C
330
1B8B
100
AcDbEntity
  8
0
100
AcDbBlockBegin
  2
*D23
 70
     1
 10
0.0
 20
0.0
 30
0.0
  3
*D23
  1

  0
LINE
  5
1D04
330
1B8B
100
AcDbEntity
  8
0
 62
     1
370
    -2
100
AcDbLine
 10
802.2186632922188
 20
196.9435028186043
 30
0.0
 11
857.8438592456297
 21
196.9435028186043
 31
0.0
  0
LINE
  5
1D05
330
1B8B
100
AcDbEntity
  8
0
 62
     1
370
    -2
100
AcDbLine
 10
827.821265977872
 20
186.2435005059441
 30
0.0
 11
857.8438592456297
 21
186.243500505944
 31
0.0
  0
LINE
  5
1D06
330
1B8B
100
AcDbEntity
  8
0
 62
     1
370
    -2
100
AcDbLine
 10
856.5938592456298
 20
190.2435005059441
 30
0.0
 11
856.5938592456298
 21
192.9435028186043
 31
0.0
  0
LINE
  5
1D07
330
1B8B
100
AcDbEntity
  8
0
 62
     1
370
    -2
100
AcDbLine
 10
856.5938592456298
 20
196.9435028186043
 30
0.0
 11
856.5938592456298
 21
213.610169485271
 31
0.0
  0
SOLID
  5
1D08
330
1B8B
100
AcDbEntity
  8
0
 62
     1
100
AcDbTrace
 10
855.9271925789632
 20
190.2435005059441
 30
0.0
 11
857.2605259122964
 21
190.2435005059441
 31
0.0
 12
856.5938592456298
 22
186.243500505944
 32
0.0
 13
856.5938592456298
 23
186.243500505944
 33
0.0
  0
SOLID
  5
1D09
330
1B8B
100
AcDbEntity
  8
0
 62
     1
100
AcDbTrace
 10
855.9271925789632
 20
192.9435028186043
 30
0.0
 11
857.2605259122964
 21
192.9435028186043
 31
0.0
 12
856.5938592456298
 22
196.9435028186043
 32
0.0
 13
856.5938592456298
 23
196.9435028186043
 33
0.0
  0
MTEXT
  5
1D0A
330
1B8B
100
AcDbEntity
  8
0
 62
     1
100
AcDbMText
 10
853.2605259122965
 20
207.2768361519378
 30
0.0
 40
4.0
 41
0.0
 71
     5
 72
     1
  1
10,7
 11
0.0000000000000001
 21
1.0
 31
0.0
 73
     1
 44
1.0
  0
POINT
  5
1D0B
330
1B8B
100
AcDbEntity
  8
Defpoints
 62
     0
100
AcDbPoint
 10
801.5936632922187
 20
196.9435028186043
 30
0.0
  0
POINT
  5
1D0C
330
1B8B
100
AcDbEntity
  8
Defpoints
 62
     0
100
AcDbPoint
 10
827.196265977872
 20
186.2435005059441
 30
0.0
  0
POINT
  5
1D0D
330
1B8B
100
AcDbEntity
  8
Defpoints
 62
     0
100
AcDbPoint
 10
856.5938592456298
 20
186.243500505944
 30
0.0
  0
ENDBLK
  5
1B8D
330
1B8B
100
AcDbEntity
  8
0
100
AcDbBlockEnd
  0
BLOCK
  5
1BAE
330
1BAD
100
AcDbEntity
  8
0
100
AcDbBlockBegin
  2
*D24
 70
     1
 10
0.0
 20
0.0
 30
0.0
  3
*D24
  1

  0
LINE
  5
1D0E
330
1BAD
100
AcDbEntity
  8
0
 62
     1
370
    -2
100
AcDbLine
 10
797.1936623847381
 20
198.5685028186043
 30
0.0
 11
797.1936623847381
 21
208.1766748950254
 31
0.0
  0
LINE
  5
1D0F
330
1BAD
100
AcDbEntity
  8
0
 62
     1
370
    -2
100
AcDbLine
 10
781.1936630217627
 20
182.868499850293
 30
0.0
 11
781.1936630217627
 21
208.1766748950254
 31
0.0
  0
LINE
  5
1D10
330
1BAD
100
AcDbEntity
  8
0
 62
     1
370
    -2
100
AcDbLine
 10
793.1936623847381
 20
206.9266748950254
 30
0.0
 11
785.1936630217627
 21
206.9266748950254
 31
0.0
  0
SOLID
  5
1D11
330
1BAD
100
AcDbEntity
  8
0
 62
     1
100
AcDbTrace
 10
793.1936623847381
 20
207.5933415616921
 30
0.0
 11
793.1936623847381
 21
206.2600082283588
 31
0.0
 12
797.1936623847381
 22
206.9266748950254
 32
0.0
 13
797.1936623847381
 23
206.9266748950254
 33
0.0
  0
SOLID
  5
1D12
330
1BAD
100
AcDbEntity
  8
0
 62
     1
100
AcDbTrace
 10
785.1936630217627
 20
207.5933415616921
 30
0.0
 11
785.1936630217627
 21
206.2600082283588
 31
0.0
 12
781.1936630217627
 22
206.9266748950254
 32
0.0
 13
781.1936630217627
 23
206.9266748950254
 33
0.0
  0
MTEXT
  5
1D13
330
1BAD
100
AcDbEntity
  8
0
 62
     1
100
AcDbMText
 10
789.1936627032504
 20
209.9266748950254
 30
0.0
 40
4.0
 41
0.0
 71
     5
 72
     1
  1
16
 73
     1
 44
1.0
  0
POINT
  5
1D14
330
1BAD
100
AcDbEntity
  8
Defpoints
 62
     0
100
AcDbPoint
 10
797.1936623847381
 20
197.9435028186043
 30
0.0
  0
POINT
  5
1D15
330
1BAD
100
AcDbEntity
  8
Defpoints
 62
     0
100
AcDbPoint
 10
781.1936630217627
 20
182.243499850293
 30
0.0
  0
POINT
  5
1D16
330
1BAD
100
AcDbEntity
  8
Defpoints
 62
     0
100
AcDbPoint
 10
781.1936630217627
 20
206.9266748950254
 30
0.0
  0
ENDBLK
  5
1BAF
330
1BAD
100
AcDbEntity
  8
0
100
AcDbBlockEnd
  0
ENDSEC
  0
SECTION
  2
ENTITIES
  0
MTEXT
  5
DE6
330
1F
100
AcDbEntity
  8
0
100
AcDbMText
 10
30.51753582340359
 20
377.6576357044683
 30
0.0
 40
50.0
 41
274.8248443827194
 71
     1
 72
     5
  1
{\fArial Black|b1|i1|c0|p34;RF605}
 73
     1
 44
1.0
  0
SPLINE
  5
114C
330
1F
100
AcDbEntity
  8
0
  6
Continuous
 62
     7
370
    15
100
AcDbSpline
210
0.0
220
0.0
230
1.0
 70
    24
 71
     1
 72
     4
 73
     2
 74
     0
 42
0.0000000001
 43
0.0000000001
 40
0.0
 40
0.0
 40
1.0
 40
1.0
 10
106.4811878663031
 20
169.9068924635455
 30
0.0
 10
104.9811885517565
 20
169.9068924635455
 30
0.0
  0
SPLINE
  5
114D
330
1F
100
AcDbEntity
  8
0
  6
Continuous
 62
     7
370
    15
100
AcDbSpline
210
0.0
220
0.0
230
1.0
 70
    24
 71
     1
 72
     4
 73
     2
 74
     0
 42
0.0000000001
 43
0.0000000001
 40
0.0
 40
0.0
 40
1.0
 40
1.0
 10
104.9811885517565
 20
158.4068924411937
 30
0.0
 10
106.4811878663031
 20
158.4068924411937
 30
0.0
  0
SPLINE
  5
114E
330
1F
100
AcDbEntity
  8
0
  6
Continuous
 62
     7
370
    15
100
AcDbSpline
210
0.0
220
0.0
230
1.0
 70
    24
 71
     1
 72
     4
 73
     2
 74
     0
 42
0.0000000001
 43
0.0000000001
 40
0.0
 40
0.0
 40
1.0
 40
1.0
 10
103.4811855119196
 20
169.1568923406109
 30
0.0
 10
102.6226066809622
 20
168.2983139753148
 30
0.0
  0
SPLINE
  5
114F
330
1F
100
AcDbEntity
  8
0
  6
Continuous
 62
     7
370
    15
100
AcDbSpline
210
0.0
220
0.0
230
1.0
 70
    24
 71
     1
 72
     4
 73
     2
 74
     0
 42
0.0000000001
 43
0.0000000001
 40
0.0
 40
0.0
 40
1.0
 40
1.0
 10
102.6226066809622
 20
160.0154709294244
 30
0.0
 10
103.4811855119196
 20
159.156892098467
 30
0.0
  0
SPLINE
  5
1150
330
1F
100
AcDbEntity
  8
0
  6
Continuous
 62
     7
370
    15
100
AcDbSpline
210
0.0
220
0.0
230
1.0
 70
    24
 71
     1
 72
     4
 73
     2
 74
     0
 42
0.0000000001
 43
0.0000000001
 40
0.0
 40
0.0
 40
1.0
 40
1.0
 10
101.4811851840941
 20
159.156892098467
 30
0.0
 10
102.3397640150515
 20
160.0154709294244
 30
0.0
  0
SPLINE
  5
1151
330
1F
100
AcDbEntity
  8
0
  6
Continuous
 62
     7
370
    15
100
AcDbSpline
210
0.0
220
0.0
230
1.0
 70
    24
 71
     1
 72
     4
 73
     2
 74
     0
 42
0.0000000001
 43
0.0000000001
 40
0.0
 40
0.0
 40
1.0
 40
1.0
 10
102.3397640150515
 20
168.2983139753148
 30
0.0
 10
101.4811851840941
 20
169.1568923406109
 30
0.0
  0
SPLINE
  5
1152
330
1F
100
AcDbEntity
  8
0
  6
Continuous
 62
     7
370
    15
100
AcDbSpline
210
0.0
220
0.0
230
1.0
 70
    24
 71
     1
 72
     4
 73
     2
 74
     0
 42
0.0000000001
 43
0.0000000001
 40
0.0
 40
0.0
 40
1.0
 40
1.0
 10
104.9811885517565
 20
169.1568923406109
 30
0.0
 10
103.4811855119196
 20
169.1568923406109
 30
0.0
  0
SPLINE
  5
1153
330
1F
100
AcDbEntity
  8
0
  6
Continuous
 62
     7
370
    15
100
AcDbSpline
210
0.0
220
0.0
230
1.0
 70
    24
 71
     1
 72
     4
 73
     2
 74
     0
 42
0.0000000001
 43
0.0000000001
 40
0.0
 40
0.0
 40
1.0
 40
1.0
 10
103.4811855119196
 20
159.156892098467
 30
0.0
 10
104.9811885517565
 20
159.156892098467
 30
0.0
  0
SPLINE
  5
1154
330
1F
100
AcDbEntity
  8
0
  6
Continuous
 62
     7
370
    15
100
AcDbSpline
210
0.0
220
0.0
230
1.0
 70
    24
 71
     1
 72
     4
 73
     2
 74
     0
 42
0.0000000001
 43
0.0000000001
 40
0.0
 40
0.0
 40
1.0
 40
1.0
 10
101.4811851840941
 20
169.1568923406109
 30
0.0
 10
97.78118960675875
 20
169.1568923406109
 30
0.0
  0
SPLINE
  5
1155
330
1F
100
AcDbEntity
  8
0
  6
Continuous
 62
     7
370
    15
100
AcDbSpline
210
0.0
220
0.0
230
1.0
 70
    24
 71
     1
 72
     4
 73
     2
 74
     0
 42
0.0000000001
 43
0.0000000001
 40
0.0
 40
0.0
 40
1.0
 40
1.0
 10
97.78118960675875
 20
159.156892098467
 30
0.0
 10
101.4811851840941
 20
159.156892098467
 30
0.0
  0
ARC
  5
1156
330
1F
100
AcDbEntity
  8
0
  6
Continuous
 62
     7
370
    15
100
AcDbCircle
 10
96.78118701962297
 20
168.6568925306007
 30
0.0
 40
0.5
100
AcDbArc
 50
0.0
 51
180.0
  0
ARC
  5
1157
330
1F
100
AcDbEntity
  8
0
  6
Continuous
 62
     7
370
    15
100
AcDbCircle
 10
96.78118701962297
 20
159.6568925306008
 30
0.0
 40
0.5
100
AcDbArc
 50
180.000000000004
 51
0.0
  0
SPLINE
  5
1158
330
1F
100
AcDbEntity
  8
0
  6
Continuous
 62
     7
370
    15
100
AcDbSpline
210
0.0
220
0.0
230
1.0
 70
    24
 71
     1
 72
     4
 73
     2
 74
     0
 42
0.0000000001
 43
0.0000000001
 40
0.0
 40
0.0
 40
1.0
 40
1.0
 10
95.8811872464148
 20
168.6568927243158
 30
0.0
 10
95.78118555364289
 20
168.5568924285278
 30
0.0
  0
SPLINE
  5
1159
330
1F
100
AcDbEntity
  8
0
  6
Continuous
 62
     7
370
    15
100
AcDbSpline
210
0.0
220
0.0
230
1.0
 70
    24
 71
     1
 72
     4
 73
     2
 74
     0
 42
0.0000000001
 43
0.0000000001
 40
0.0
 40
0.0
 40
1.0
 40
1.0
 10
95.78118555364289
 20
159.7568929418728
 30
0.0
 10
95.8811872464148
 20
159.6568921804234
 30
0.0
  0
SPLINE
  5
115A
330
1F
100
AcDbEntity
  8
0
  6
Continuous
 62
     7
370
    15
100
AcDbSpline
210
0.0
220
0.0
230
1.0
 70
    24
 71
     1
 72
     4
 73
     2
 74
     0
 42
0.0000000001
 43
0.0000000001
 40
0.0
 40
0.0
 40
1.0
 40
1.0
 10
96.28118656692187
 20
168.6568927243158
 30
0.0
 10
95.8811872464148
 20
168.6568927243158
 30
0.0
  0
SPLINE
  5
115B
330
1F
100
AcDbEntity
  8
0
  6
Continuous
 62
     7
370
    15
100
AcDbSpline
210
0.0
220
0.0
230
1.0
 70
    24
 71
     1
 72
     4
 73
     2
 74
     0
 42
0.0000000001
 43
0.0000000001
 40
0.0
 40
0.0
 40
1.0
 40
1.0
 10
95.8811872464148
 20
159.6568921804234
 30
0.0
 10
96.28118656692187
 20
159.6568921804234
 30
0.0
  0
SPLINE
  5
115C
330
1F
100
AcDbEntity
  8
0
  6
Continuous
 62
     7
370
    15
100
AcDbSpline
210
0.0
220
0.0
230
1.0
 70
    24
 71
     1
 72
     4
 73
     2
 74
     0
 42
0.0000000001
 43
0.0000000001
 40
0.0
 40
0.0
 40
1.0
 40
1.0
 10
97.78118960675875
 20
168.6568927243158
 30
0.0
 10
97.28118859347979
 20
168.6568927243158
 30
0.0
  0
SPLINE
  5
115D
330
1F
100
AcDbEntity
  8
0
  6
Continuous
 62
     7
370
    15
100
AcDbSpline
210
0.0
220
0.0
230
1.0
 70
    24
 71
     1
 72
     4
 73
     2
 74
     0
 42
0.0000000001
 43
0.0000000001
 40
0.0
 40
0.0
 40
1.0
 40
1.0
 10
97.28118859347979
 20
159.6568921804234
 30
0.0
 10
97.78118960675875
 20
159.6568921804234
 30
0.0
  0
ARC
  5
115E
330
1F
100
AcDbEntity
  8
0
  6
Continuous
 62
     7
370
    15
100
AcDbCircle
 10
102.4811870196229
 20
168.4397352430754
 30
0.0
 40
0.1999999999999996
100
AcDbArc
 50
224.999999999995
 51
314.9999999999963
  0
ARC
  5
115F
330
1F
100
AcDbEntity
  8
0
  6
Continuous
 62
     7
370
    15
100
AcDbCircle
 10
102.4811870196229
 20
159.8740498181261
 30
0.0
 40
0.1999999999999895
100
AcDbArc
 50
44.99999999999545
 51
135.0000000000052
  0
LINE
  5
1160
330
1F
100
AcDbEntity
  8
0
  6
Continuous
 62
     7
370
    15
100
AcDbLine
 10
104.9811885517565
 20
169.9068924635455
 30
0.0
 11
104.9811885517565
 21
158.4068924411937
 31
0.0
  0
LINE
  5
1161
330
1F
100
AcDbEntity
  8
0
  6
Continuous
 62
     7
370
    15
100
AcDbLine
 10
103.4811855119196
 20
169.1568923406109
 30
0.0
 11
103.4811855119196
 21
159.156892098467
 31
0.0
  0
LINE
  5
1162
330
1F
100
AcDbEntity
  8
0
  6
Continuous
 62
     7
370
    15
100
AcDbLine
 10
101.4811851840941
 20
169.1568923406109
 30
0.0
 11
101.4811851840941
 21
159.156892098467
 31
0.0
  0
LINE
  5
1163
330
1F
100
AcDbEntity
  8
0
  6
Continuous
 62
     7
370
    15
100
AcDbLine
 10
97.78118960675875
 20
169.1568923406109
 30
0.0
 11
97.78118960675875
 21
159.156892098467
 31
0.0
  0
LINE
  5
1164
330
1F
100
AcDbEntity
  8
0
  6
Continuous
 62
     7
370
    15
100
AcDbLine
 10
97.28118859347979
 20
168.6568927243158
 30
0.0
 11
97.28118859347979
 21
159.6568921804234
 31
0.0
  0
LINE
  5
1165
330
1F
100
AcDbEntity
  8
0
  6
Continuous
 62
     7
370
    15
100
AcDbLine
 10
96.28118656692187
 20
168.6568927243158
 30
0.0
 11
96.28118656692187
 21
159.6568921804234
 31
0.0
  0
LINE
  5
1166
330
1F
100
AcDbEntity
  8
0
  6
Continuous
 62
     7
370
    15
100
AcDbLine
 10
95.8811872464148
 20
168.6568927243158
 30
0.0
 11
95.8811872464148
 21
159.6568921804234
 31
0.0
  0
LINE
  5
1167
330
1F
100
AcDbEntity
  8
0
  6
Continuous
 62
     7
370
    15
100
AcDbLine
 10
95.78118555364289
 20
159.7568929418728
 30
0.0
 11
95.78118555364289
 21
168.5568924285278
 31
0.0
  0
LINE
  5
1168
330
1F
100
AcDbEntity
  8
0
  6
Continuous
 62
     7
370
    15
100
AcDbLine
 10
106.4011872571436
 20
172.1568924831033
 30
0.0
 11
106.4811878663031
 21
172.1568924831033
 31
0.0
  0
LINE
  5
1169
330
1F
100
AcDbEntity
  8
0
  6
Continuous
 62
     7
370
    15
100
AcDbLine
 10
106.4811878663031
 20
171.1568924356058
 30
0.0
 11
106.4011872571436
 21
171.1568924356058
 31
0.0
  0
LINE
  5
116A
330
1F
100
AcDbEntity
  8
0
  6
Continuous
 62
     7
370
    15
100
AcDbLine
 10
106.4011872571436
 20
171.1568924356058
 30
0.0
 11
106.4011872571436
 21
172.1568924831033
 31
0.0
  0
LINE
  5
116B
330
1F
100
AcDbEntity
  8
0
  6
Continuous
 62
     7
370
    15
100
AcDbLine
 10
106.4811878663031
 20
192.1568919196531
 30
0.0
 11
106.4011872571436
 21
192.1568919196531
 31
0.0
  0
LINE
  5
116C
330
1F
100
AcDbEntity
  8
0
  6
Continuous
 62
     7
370
    15
100
AcDbLine
 10
106.4011872571436
 20
172.1568924831033
 30
0.0
 11
106.4011872571436
 21
192.1568919196531
 31
0.0
  0
LINE
  5
116D
330
1F
100
AcDbEntity
  8
0
  6
Continuous
 62
     7
370
    15
100
AcDbLine
 10
106.4011872571436
 20
193.1568920835659
 30
0.0
 11
106.4811878663031
 21
193.1568920835659
 31
0.0
  0
LINE
  5
116E
330
1F
100
AcDbEntity
  8
0
  6
Continuous
 62
     7
370
    15
100
AcDbLine
 10
106.4011872571436
 20
192.1568919196531
 30
0.0
 11
106.4011872571436
 21
193.1568920835659
 31
0.0
  0
LINE
  5
116F
330
1F
100
AcDbEntity
  8
0
  6
Continuous
 62
     7
370
    15
100
AcDbLine
 10
116.5398851793734
 20
195.365592487137
 30
0.0
 11
116.73118628678
 21
195.5568917318985
 31
0.0
  0
LINE
  5
1170
330
1F
100
AcDbEntity
  8
0
  6
Continuous
 62
     7
370
    15
100
AcDbLine
 10
116.5398851793734
 20
195.365592487137
 30
0.0
 11
116.4224863809077
 21
195.365592487137
 31
0.0
  0
LINE
  5
1171
330
1F
100
AcDbEntity
  8
0
  6
Continuous
 62
     7
370
    15
100
AcDbLine
 10
116.4224863809077
 20
195.365592487137
 30
0.0
 11
116.231185273501
 21
195.5568917318985
 31
0.0
  0
LINE
  5
1172
330
1F
100
AcDbEntity
  8
0
  6
Continuous
 62
     7
370
    15
100
AcDbLine
 10
116.73118628678
 20
195.5568917318985
 30
0.0
 11
116.231185273501
 21
195.5568917318985
 31
0.0
  0
LINE
  5
1173
330
1F
100
AcDbEntity
  8
0
  6
Continuous
 62
     7
370
    15
100
AcDbLine
 10
117.0311876398054
 20
194.7155907973453
 30
0.0
 11
117.0311876398054
 21
194.9068919047519
 31
0.0
  0
ARC
  5
1174
330
1F
100
AcDbEntity
  8
0
  6
Continuous
 62
     7
370
    15
100
AcDbCircle
 10
117.0311870196228
 20
195.2068925306007
 30
0.0
 40
0.4913009055030244
100
AcDbArc
 50
180.0
 51
270.0
  0
LINE
  5
1175
330
1F
100
AcDbEntity
  8
0
  6
Continuous
 62
     7
370
    15
100
AcDbLine
 10
116.5398851793734
 20
195.2068932577774
 30
0.0
 11
116.73118628678
 21
195.2068932577774
 31
0.0
  0
ARC
  5
1176
330
1F
100
AcDbEntity
  8
0
  6
Continuous
 62
     7
370
    15
100
AcDbCircle
 10
117.0311870196228
 20
195.2068925306007
 30
0.0
 40
0.3000000000000114
100
AcDbArc
 50
180.0
 51
270.0
  0
LINE
  5
1177
330
1F
100
AcDbEntity
  8
0
  6
Continuous
 62
     7
370
    15
100
AcDbLine
 10
117.1898850065199
 20
194.7155907973453
 30
0.0
 11
117.3811861139265
 21
194.9068919047519
 31
0.0
  0
LINE
  5
1178
330
1F
100
AcDbEntity
  8
0
  6
Continuous
 62
     7
370
    15
100
AcDbLine
 10
117.1898850065199
 20
194.7155907973453
 30
0.0
 11
117.0311876398054
 21
194.7155907973453
 31
0.0
  0
LINE
  5
1179
330
1F
100
AcDbEntity
  8
0
  6
Continuous
 62
     7
370
    15
100
AcDbLine
 10
117.3811861139265
 20
194.9068919047519
 30
0.0
 11
117.0311876398054
 21
194.9068919047519
 31
0.0
  0
LINE
  5
117A
330
1F
100
AcDbEntity
  8
0
  6
Continuous
 62
     7
370
    15
100
AcDbLine
 10
117.1898850065199
 20
194.5981938615247
 30
0.0
 11
117.3811861139265
 21
194.4068927541181
 31
0.0
  0
LINE
  5
117B
330
1F
100
AcDbEntity
  8
0
  6
Continuous
 62
     7
370
    15
100
AcDbLine
 10
117.1898850065199
 20
194.5981938615247
 30
0.0
 11
117.1898850065199
 21
194.7155907973453
 31
0.0
  0
LINE
  5
117C
330
1F
100
AcDbEntity
  8
0
  6
Continuous
 62
     7
370
    15
100
AcDbLine
 10
117.3811861139265
 20
194.4068927541181
 30
0.0
 11
117.3811861139265
 21
194.9068919047519
 31
0.0
  0
LINE
  5
117D
330
1F
100
AcDbEntity
  8
0
  6
Continuous
 62
     7
370
    15
100
AcDbLine
 10
117.0311876398054
 20
194.5981938615247
 30
0.0
 11
117.0311876398054
 21
194.4068927541181
 31
0.0
  0
LINE
  5
117E
330
1F
100
AcDbEntity
  8
0
  6
Continuous
 62
     7
370
    15
100
AcDbLine
 10
117.0311876398054
 20
194.5981938615247
 30
0.0
 11
117.1898850065199
 21
194.5981938615247
 31
0.0
  0
LINE
  5
117F
330
1F
100
AcDbEntity
  8
0
  6
Continuous
 62
     7
370
    15
100
AcDbLine
 10
117.0311876398054
 20
194.4068927541181
 30
0.0
 11
117.3811861139265
 21
194.4068927541181
 31
0.0
  0
LINE
  5
1180
330
1F
100
AcDbEntity
  8
0
  6
Continuous
 62
     7
370
    15
100
AcDbLine
 10
116.5398851793734
 20
193.9481940343782
 30
0.0
 11
116.73118628678
 21
193.7568929269716
 31
0.0
  0
LINE
  5
1181
330
1F
100
AcDbEntity
  8
0
  6
Continuous
 62
     7
370
    15
100
AcDbLine
 10
116.5398851793734
 20
193.9481940343782
 30
0.0
 11
116.5398851793734
 21
194.1068932637378
 31
0.0
  0
LINE
  5
1182
330
1F
100
AcDbEntity
  8
0
  6
Continuous
 62
     7
370
    15
100
AcDbLine
 10
116.5398851793734
 20
194.1068932637378
 30
0.0
 11
116.73118628678
 21
194.1068932637378
 31
0.0
  0
LINE
  5
1183
330
1F
100
AcDbEntity
  8
0
  6
Continuous
 62
     7
370
    15
100
AcDbLine
 10
116.73118628678
 20
193.7568929269716
 30
0.0
 11
116.73118628678
 21
194.1068932637378
 31
0.0
  0
LINE
  5
1184
330
1F
100
AcDbEntity
  8
0
  6
Continuous
 62
     7
370
    15
100
AcDbLine
 10
116.4224863809077
 20
194.1068932637378
 30
0.0
 11
116.231185273501
 21
194.1068932637378
 31
0.0
  0
LINE
  5
1185
330
1F
100
AcDbEntity
  8
0
  6
Continuous
 62
     7
370
    15
100
AcDbLine
 10
116.4224863809077
 20
194.1068932637378
 30
0.0
 11
116.4224863809077
 21
193.9481940343782
 31
0.0
  0
LINE
  5
1186
330
1F
100
AcDbEntity
  8
0
  6
Continuous
 62
     7
370
    15
100
AcDbLine
 10
116.4224863809077
 20
193.9481940343782
 30
0.0
 11
116.231185273501
 21
193.7568929269716
 31
0.0
  0
LINE
  5
1187
330
1F
100
AcDbEntity
  8
0
  6
Continuous
 62
     7
370
    15
100
AcDbLine
 10
116.231185273501
 20
194.1068932637378
 30
0.0
 11
116.231185273501
 21
193.7568929269716
 31
0.0
  0
LINE
  5
1188
330
1F
100
AcDbEntity
  8
0
  6
Continuous
 62
     7
370
    15
100
AcDbLine
 10
115.9311876457659
 20
194.5981938615247
 30
0.0
 11
115.9311876457659
 21
194.4068927541181
 31
0.0
  0
ARC
  5
1189
330
1F
100
AcDbEntity
  8
0
  6
Continuous
 62
     7
370
    15
100
AcDbCircle
 10
115.9311870196228
 20
194.1068925306007
 30
0.0
 40
0.4913009055030244
100
AcDbArc
 50
0.0
 51
90.0
  0
ARC
  5
118A
330
1F
100
AcDbEntity
  8
0
  6
Continuous
 62
     7
370
    15
100
AcDbCircle
 10
115.9311870196228
 20
194.1068925306007
 30
0.0
 40
0.2999999999999971
100
AcDbArc
 50
0.0
 51
90.0
  0
LINE
  5
118B
330
1F
100
AcDbEntity
  8
0
  6
Continuous
 62
     7
370
    15
100
AcDbLine
 10
115.7724865537611
 20
194.5981938615247
 30
0.0
 11
115.5811854463545
 21
194.4068927541181
 31
0.0
  0
LINE
  5
118C
330
1F
100
AcDbEntity
  8
0
  6
Continuous
 62
     7
370
    15
100
AcDbLine
 10
115.7724865537611
 20
194.5981938615247
 30
0.0
 11
115.9311876457659
 21
194.5981938615247
 31
0.0
  0
LINE
  5
118D
330
1F
100
AcDbEntity
  8
0
  6
Continuous
 62
     7
370
    15
100
AcDbLine
 10
115.5811854463545
 20
194.4068927541181
 30
0.0
 11
115.9311876457659
 21
194.4068927541181
 31
0.0
  0
CIRCLE
  5
118E
330
1F
100
AcDbEntity
  8
0
  6
Continuous
 62
     7
370
    15
100
AcDbCircle
 10
116.4811870196229
 20
194.6568925306007
 30
0.0
 40
2.0
  0
LINE
  5
118F
330
1F
100
AcDbEntity
  8
0
  6
Continuous
 62
     7
370
    15
100
AcDbLine
 10
116.231185273501
 20
193.7568929269716
 30
0.0
 11
116.73118628678
 21
193.7568929269716
 31
0.0
  0
ARC
  5
1190
330
1F
100
AcDbEntity
  8
0
  6
Continuous
 62
     7
370
    15
100
AcDbCircle
 10
117.0311870196228
 20
194.1068925306007
 30
0.0
 40
0.3000000000000114
100
AcDbArc
 50
90.0
 51
180.0
  0
LINE
  5
1191
330
1F
100
AcDbEntity
  8
0
  6
Continuous
 62
     7
370
    15
100
AcDbLine
 10
116.73118628678
 20
195.2068932577774
 30
0.0
 11
116.73118628678
 21
195.5568917318985
 31
0.0
  0
LINE
  5
1192
330
1F
100
AcDbEntity
  8
0
  6
Continuous
 62
     7
370
    15
100
AcDbLine
 10
116.231185273501
 20
195.5568917318985
 30
0.0
 11
116.231185273501
 21
195.2068932577774
 31
0.0
  0
ARC
  5
1193
330
1F
100
AcDbEntity
  8
0
  6
Continuous
 62
     7
370
    15
100
AcDbCircle
 10
115.9311870196228
 20
195.2068925306007
 30
0.0
 40
0.3000000000000114
100
AcDbArc
 50
270.0
 51
0.0
  0
LINE
  5
1194
330
1F
100
AcDbEntity
  8
0
  6
Continuous
 62
     7
370
    15
100
AcDbLine
 10
115.9311876457659
 20
194.9068919047519
 30
0.0
 11
115.5811854463545
 21
194.9068919047519
 31
0.0
  0
LINE
  5
1195
330
1F
100
AcDbEntity
  8
0
  6
Continuous
 62
     7
370
    15
100
AcDbLine
 10
115.5811854463545
 20
194.9068919047519
 30
0.0
 11
115.5811854463545
 21
194.4068927541181
 31
0.0
  0
ARC
  5
1196
330
1F
100
AcDbEntity
  8
0
  6
Continuous
 62
     7
370
    15
100
AcDbCircle
 10
117.0311870196228
 20
194.1068925306007
 30
0.0
 40
0.4913009055030244
100
AcDbArc
 50
90.0
 51
180.0
  0
LINE
  5
1197
330
1F
100
AcDbEntity
  8
0
  6
Continuous
 62
     7
370
    15
100
AcDbLine
 10
115.7724865537611
 20
194.7155907973453
 30
0.0
 11
115.5811854463545
 21
194.9068919047519
 31
0.0
  0
LINE
  5
1198
330
1F
100
AcDbEntity
  8
0
  6
Continuous
 62
     7
370
    15
100
AcDbLine
 10
115.7724865537611
 20
194.7155907973453
 30
0.0
 11
115.7724865537611
 21
194.5981938615247
 31
0.0
  0
LINE
  5
1199
330
1F
100
AcDbEntity
  8
0
  6
Continuous
 62
     7
370
    15
100
AcDbLine
 10
116.4224863809077
 20
193.9481940343782
 30
0.0
 11
116.5398851793734
 21
193.9481940343782
 31
0.0
  0
LINE
  5
119A
330
1F
100
AcDbEntity
  8
0
  6
Continuous
 62
     7
370
    15
100
AcDbLine
 10
116.4224863809077
 20
195.2068932577774
 30
0.0
 11
116.231185273501
 21
195.2068932577774
 31
0.0
  0
ARC
  5
119B
330
1F
100
AcDbEntity
  8
0
  6
Continuous
 62
     7
370
    15
100
AcDbCircle
 10
115.9311870196228
 20
195.2068925306007
 30
0.0
 40
0.4913009055030244
100
AcDbArc
 50
270.0
 51
0.0
  0
LINE
  5
119C
330
1F
100
AcDbEntity
  8
0
  6
Continuous
 62
     7
370
    15
100
AcDbLine
 10
115.9311876457659
 20
194.7155907973453
 30
0.0
 11
115.9311876457659
 21
194.9068919047519
 31
0.0
  0
LINE
  5
119D
330
1F
100
AcDbEntity
  8
0
  6
Continuous
 62
     7
370
    15
100
AcDbLine
 10
116.4224863809077
 20
195.365592487137
 30
0.0
 11
116.4224863809077
 21
195.2068932577774
 31
0.0
  0
LINE
  5
119E
330
1F
100
AcDbEntity
  8
0
  6
Continuous
 62
     7
370
    15
100
AcDbLine
 10
116.5398851793734
 20
195.2068932577774
 30
0.0
 11
116.5398851793734
 21
195.365592487137
 31
0.0
  0
LINE
  5
119F
330
1F
100
AcDbEntity
  8
0
  6
Continuous
 62
     7
370
    15
100
AcDbLine
 10
115.9311876457659
 20
194.7155907973453
 30
0.0
 11
115.7724865537611
 21
194.7155907973453
 31
0.0
  0
ARC
  5
11A0
330
1F
100
AcDbEntity
  8
0
  6
Continuous
 62
     7
370
    15
100
AcDbCircle
 10
109.4311870196229
 20
187.6068925306005
 30
0.0
 40
0.2999999999999829
100
AcDbArc
 50
0.0
 51
90.0
  0
LINE
  5
11A1
330
1F
100
AcDbEntity
  8
0
  6
Continuous
 62
     7
370
    15
100
AcDbLine
 10
109.7311870020357
 20
187.6068921983048
 30
0.0
 11
109.7311870020357
 21
187.2568927928611
 31
0.0
  0
LINE
  5
11A2
330
1F
100
AcDbEntity
  8
0
  6
Continuous
 62
     7
370
    15
100
AcDbLine
 10
109.7311870020357
 20
187.2568927928611
 30
0.0
 11
110.2311880153147
 21
187.2568927928611
 31
0.0
  0
LINE
  5
11A3
330
1F
100
AcDbEntity
  8
0
  6
Continuous
 62
     7
370
    15
100
AcDbLine
 10
110.2311880153147
 20
187.2568927928611
 30
0.0
 11
110.2311880153147
 21
187.6068921983048
 31
0.0
  0
ARC
  5
11A4
330
1F
100
AcDbEntity
  8
0
  6
Continuous
 62
     7
370
    15
100
AcDbCircle
 10
110.5311870196229
 20
187.6068925306005
 30
0.0
 40
0.2999999999999971
100
AcDbArc
 50
90.0
 51
180.0
  0
LINE
  5
11A5
330
1F
100
AcDbEntity
  8
0
  6
Continuous
 62
     7
370
    15
100
AcDbLine
 10
110.5311856430498
 20
187.9068926200077
 30
0.0
 11
110.8811878424612
 21
187.9068926200077
 31
0.0
  0
LINE
  5
11A6
330
1F
100
AcDbEntity
  8
0
  6
Continuous
 62
     7
370
    15
100
AcDbLine
 10
110.8811878424612
 20
187.9068926200077
 30
0.0
 11
110.8811878424612
 21
188.4068927019641
 31
0.0
  0
LINE
  5
11A7
330
1F
100
AcDbEntity
  8
0
  6
Continuous
 62
     7
370
    15
100
AcDbLine
 10
110.8811878424612
 20
188.4068927019641
 30
0.0
 11
110.5311856430498
 21
188.4068927019641
 31
0.0
  0
ARC
  5
11A8
330
1F
100
AcDbEntity
  8
0
  6
Continuous
 62
     7
370
    15
100
AcDbCircle
 10
110.5311870196229
 20
188.7068925306005
 30
0.0
 40
0.3000000000000114
100
AcDbArc
 50
180.0
 51
270.0
  0
LINE
  5
11A9
330
1F
100
AcDbEntity
  8
0
  6
Continuous
 62
     7
370
    15
100
AcDbLine
 10
110.2311880153147
 20
188.7068921923443
 30
0.0
 11
110.2311880153147
 21
189.0568934604332
 31
0.0
  0
LINE
  5
11AA
330
1F
100
AcDbEntity
  8
0
  6
Continuous
 62
     7
370
    15
100
AcDbLine
 10
110.2311880153147
 20
189.0568934604332
 30
0.0
 11
109.7311870020357
 21
189.0568934604332
 31
0.0
  0
LINE
  5
11AB
330
1F
100
AcDbEntity
  8
0
  6
Continuous
 62
     7
370
    15
100
AcDbLine
 10
109.7311870020357
 20
189.0568934604332
 30
0.0
 11
109.7311870020357
 21
188.7068921923443
 31
0.0
  0
ARC
  5
11AC
330
1F
100
AcDbEntity
  8
0
  6
Continuous
 62
     7
370
    15
100
AcDbCircle
 10
109.4311870196229
 20
188.7068925306005
 30
0.0
 40
0.3000000000000114
100
AcDbArc
 50
270.0
 51
0.0
  0
LINE
  5
11AD
330
1F
100
AcDbEntity
  8
0
  6
Continuous
 62
     7
370
    15
100
AcDbLine
 10
109.4311856490103
 20
188.4068927019641
 30
0.0
 11
109.0811871748892
 21
188.4068927019641
 31
0.0
  0
LINE
  5
11AE
330
1F
100
AcDbEntity
  8
0
  6
Continuous
 62
     7
370
    15
100
AcDbLine
 10
109.0811871748892
 20
188.4068927019641
 30
0.0
 11
109.0811871748892
 21
187.9068926200077
 31
0.0
  0
LINE
  5
11AF
330
1F
100
AcDbEntity
  8
0
  6
Continuous
 62
     7
370
    15
100
AcDbLine
 10
109.0811871748892
 20
187.9068926200077
 30
0.0
 11
109.4311856490103
 21
187.9068926200077
 31
0.0
  0
CIRCLE
  5
11B0
330
1F
100
AcDbEntity
  8
0
  6
Continuous
 62
     7
370
    15
100
AcDbCircle
 10
109.9811870196229
 20
188.1568925306005
 30
0.0
 40
2.0
  0
LINE
  5
11B1
330
1F
100
AcDbEntity
  8
0
  6
Continuous
 62
     7
370
    15
100
AcDbLine
 10
110.0398869079081
 20
188.8655923530265
 30
0.0
 11
110.2311880153147
 21
189.0568934604332
 31
0.0
  0
LINE
  5
11B2
330
1F
100
AcDbEntity
  8
0
  6
Continuous
 62
     7
370
    15
100
AcDbLine
 10
110.0398869079081
 20
188.8655923530265
 30
0.0
 11
109.9224881094424
 21
188.8655923530265
 31
0.0
  0
LINE
  5
11B3
330
1F
100
AcDbEntity
  8
0
  6
Continuous
 62
     7
370
    15
100
AcDbLine
 10
109.9224881094424
 20
188.8655923530265
 30
0.0
 11
109.7311870020357
 21
189.0568934604332
 31
0.0
  0
LINE
  5
11B4
330
1F
100
AcDbEntity
  8
0
  6
Continuous
 62
     7
370
    15
100
AcDbLine
 10
110.0398869079081
 20
188.7068921923443
 30
0.0
 11
110.2311880153147
 21
188.7068921923443
 31
0.0
  0
LINE
  5
11B5
330
1F
100
AcDbEntity
  8
0
  6
Continuous
 62
     7
370
    15
100
AcDbLine
 10
110.0398869079081
 20
188.7068921923443
 30
0.0
 11
110.0398869079081
 21
188.8655923530265
 31
0.0
  0
LINE
  5
11B6
330
1F
100
AcDbEntity
  8
0
  6
Continuous
 62
     7
370
    15
100
AcDbLine
 10
110.5311856430498
 20
188.2155915945574
 30
0.0
 11
110.5311856430498
 21
188.4068927019641
 31
0.0
  0
ARC
  5
11B7
330
1F
100
AcDbEntity
  8
0
  6
Continuous
 62
     7
370
    15
100
AcDbCircle
 10
110.5311870196229
 20
188.7068925306005
 30
0.0
 40
0.4913009055030102
100
AcDbArc
 50
179.9999999999967
 51
270.0
  0
LINE
  5
11B8
330
1F
100
AcDbEntity
  8
0
  6
Continuous
 62
     7
370
    15
100
AcDbLine
 10
109.9224881094424
 20
187.6068921983048
 30
0.0
 11
109.7311870020357
 21
187.6068921983048
 31
0.0
  0
LINE
  5
11B9
330
1F
100
AcDbEntity
  8
0
  6
Continuous
 62
     7
370
    15
100
AcDbLine
 10
109.9224881094424
 20
187.6068921983048
 30
0.0
 11
109.9224881094424
 21
187.4481939002678
 31
0.0
  0
LINE
  5
11BA
330
1F
100
AcDbEntity
  8
0
  6
Continuous
 62
     7
370
    15
100
AcDbLine
 10
109.9224881094424
 20
187.4481939002678
 30
0.0
 11
109.7311870020357
 21
187.2568927928611
 31
0.0
  0
LINE
  5
11BB
330
1F
100
AcDbEntity
  8
0
  6
Continuous
 62
     7
370
    15
100
AcDbLine
 10
109.4311856490103
 20
188.0981937274143
 30
0.0
 11
109.4311856490103
 21
187.9068926200077
 31
0.0
  0
ARC
  5
11BC
330
1F
100
AcDbEntity
  8
0
  6
Continuous
 62
     7
370
    15
100
AcDbCircle
 10
109.4311870196229
 20
187.6068925306005
 30
0.0
 40
0.4913009055030102
100
AcDbArc
 50
0.0
 51
90.0
  0
LINE
  5
11BD
330
1F
100
AcDbEntity
  8
0
  6
Continuous
 62
     7
370
    15
100
AcDbLine
 10
109.2724882822958
 20
188.0981937274143
 30
0.0
 11
109.0811871748892
 21
187.9068926200077
 31
0.0
  0
LINE
  5
11BE
330
1F
100
AcDbEntity
  8
0
  6
Continuous
 62
     7
370
    15
100
AcDbLine
 10
109.2724882822958
 20
188.0981937274143
 30
0.0
 11
109.4311856490103
 21
188.0981937274143
 31
0.0
  0
LINE
  5
11BF
330
1F
100
AcDbEntity
  8
0
  6
Continuous
 62
     7
370
    15
100
AcDbLine
 10
110.6898867350546
 20
188.2155915945574
 30
0.0
 11
110.8811878424612
 21
188.4068927019641
 31
0.0
  0
LINE
  5
11C0
330
1F
100
AcDbEntity
  8
0
  6
Continuous
 62
     7
370
    15
100
AcDbLine
 10
110.6898867350546
 20
188.2155915945574
 30
0.0
 11
110.5311856430498
 21
188.2155915945574
 31
0.0
  0
LINE
  5
11C1
330
1F
100
AcDbEntity
  8
0
  6
Continuous
 62
     7
370
    15
100
AcDbLine
 10
110.5311856430498
 20
188.0981937274143
 30
0.0
 11
110.5311856430498
 21
187.9068926200077
 31
0.0
  0
LINE
  5
11C2
330
1F
100
AcDbEntity
  8
0
  6
Continuous
 62
     7
370
    15
100
AcDbLine
 10
110.5311856430498
 20
188.0981937274143
 30
0.0
 11
110.6898867350546
 21
188.0981937274143
 31
0.0
  0
LINE
  5
11C3
330
1F
100
AcDbEntity
  8
0
  6
Continuous
 62
     7
370
    15
100
AcDbLine
 10
110.6898867350546
 20
188.0981937274143
 30
0.0
 11
110.8811878424612
 21
187.9068926200077
 31
0.0
  0
LINE
  5
11C4
330
1F
100
AcDbEntity
  8
0
  6
Continuous
 62
     7
370
    15
100
AcDbLine
 10
110.0398869079081
 20
187.4481939002678
 30
0.0
 11
110.2311880153147
 21
187.2568927928611
 31
0.0
  0
LINE
  5
11C5
330
1F
100
AcDbEntity
  8
0
  6
Continuous
 62
     7
370
    15
100
AcDbLine
 10
110.0398869079081
 20
187.4481939002678
 30
0.0
 11
110.0398869079081
 21
187.6068921983048
 31
0.0
  0
LINE
  5
11C6
330
1F
100
AcDbEntity
  8
0
  6
Continuous
 62
     7
370
    15
100
AcDbLine
 10
110.0398869079081
 20
187.6068921983048
 30
0.0
 11
110.2311880153147
 21
187.6068921983048
 31
0.0
  0
LINE
  5
11C7
330
1F
100
AcDbEntity
  8
0
  6
Continuous
 62
     7
370
    15
100
AcDbLine
 10
109.9224881094424
 20
187.4481939002678
 30
0.0
 11
110.0398869079081
 21
187.4481939002678
 31
0.0
  0
LINE
  5
11C8
330
1F
100
AcDbEntity
  8
0
  6
Continuous
 62
     7
370
    15
100
AcDbLine
 10
110.6898867350546
 20
188.0981937274143
 30
0.0
 11
110.6898867350546
 21
188.2155915945574
 31
0.0
  0
LINE
  5
11C9
330
1F
100
AcDbEntity
  8
0
  6
Continuous
 62
     7
370
    15
100
AcDbLine
 10
109.9224881094424
 20
188.8655923530265
 30
0.0
 11
109.9224881094424
 21
188.7068921923443
 31
0.0
  0
LINE
  5
11CA
330
1F
100
AcDbEntity
  8
0
  6
Continuous
 62
     7
370
    15
100
AcDbLine
 10
109.9224881094424
 20
188.7068921923443
 30
0.0
 11
109.7311870020357
 21
188.7068921923443
 31
0.0
  0
ARC
  5
11CB
330
1F
100
AcDbEntity
  8
0
  6
Continuous
 62
     7
370
    15
100
AcDbCircle
 10
110.5311870196229
 20
187.6068925306005
 30
0.0
 40
0.4913009055030102
100
AcDbArc
 50
90.0
 51
180.0
  0
LINE
  5
11CC
330
1F
100
AcDbEntity
  8
0
  6
Continuous
 62
     7
370
    15
100
AcDbLine
 10
109.2724882822958
 20
188.2155915945574
 30
0.0
 11
109.0811871748892
 21
188.4068927019641
 31
0.0
  0
LINE
  5
11CD
330
1F
100
AcDbEntity
  8
0
  6
Continuous
 62
     7
370
    15
100
AcDbLine
 10
109.2724882822958
 20
188.2155915945574
 30
0.0
 11
109.2724882822958
 21
188.0981937274143
 31
0.0
  0
LINE
  5
11CE
330
1F
100
AcDbEntity
  8
0
  6
Continuous
 62
     7
370
    15
100
AcDbLine
 10
109.4311856490103
 20
188.2155915945574
 30
0.0
 11
109.4311856490103
 21
188.4068927019641
 31
0.0
  0
LINE
  5
11CF
330
1F
100
AcDbEntity
  8
0
  6
Continuous
 62
     7
370
    15
100
AcDbLine
 10
109.4311856490103
 20
188.2155915945574
 30
0.0
 11
109.2724882822958
 21
188.2155915945574
 31
0.0
  0
ARC
  5
11D0
330
1F
100
AcDbEntity
  8
0
  6
Continuous
 62
     7
370
    15
100
AcDbCircle
 10
109.4311870196229
 20
188.7068925306005
 30
0.0
 40
0.4913009055030102
100
AcDbArc
 50
270.0
 51
0.0
  0
LINE
  5
11D1
330
1F
100
AcDbEntity
  8
0
  6
Continuous
 62
     7
370
    15
100
AcDbLine
 10
153.5311871033636
 20
158.098193466644
 30
0.0
 11
153.5311871033636
 21
157.9068923592374
 31
0.0
  0
LINE
  5
11D2
330
1F
100
AcDbEntity
  8
0
  6
Continuous
 62
     7
370
    15
100
AcDbLine
 10
153.5311871033636
 20
158.098193466644
 30
0.0
 11
153.6898863327233
 21
158.098193466644
 31
0.0
  0
LINE
  5
11D3
330
1F
100
AcDbEntity
  8
0
  6
Continuous
 62
     7
370
    15
100
AcDbLine
 10
153.6898863327233
 20
158.098193466644
 30
0.0
 11
153.8811874401299
 21
157.9068923592374
 31
0.0
  0
LINE
  5
11D4
330
1F
100
AcDbEntity
  8
0
  6
Continuous
 62
     7
370
    15
100
AcDbLine
 10
153.5311871033636
 20
157.9068923592374
 30
0.0
 11
153.8811874401299
 21
157.9068923592374
 31
0.0
  0
LINE
  5
11D5
330
1F
100
AcDbEntity
  8
0
  6
Continuous
 62
     7
370
    15
100
AcDbLine
 10
153.5311871033636
 20
158.2155913337871
 30
0.0
 11
153.5311871033636
 21
158.4068924411937
 31
0.0
  0
ARC
  5
11D6
330
1F
100
AcDbEntity
  8
0
  6
Continuous
 62
     7
370
    15
100
AcDbCircle
 10
153.5311870196226
 20
158.706892530601
 30
0.0
 40
0.4913009055030102
100
AcDbArc
 50
180.0
 51
270.0
  0
LINE
  5
11D7
330
1F
100
AcDbEntity
  8
0
  6
Continuous
 62
     7
370
    15
100
AcDbLine
 10
153.0398865055767
 20
158.7068928628966
 30
0.0
 11
153.2311866816608
 21
158.7068928628966
 31
0.0
  0
ARC
  5
11D8
330
1F
100
AcDbEntity
  8
0
  6
Continuous
 62
     7
370
    15
100
AcDbCircle
 10
153.5311870196226
 20
158.706892530601
 30
0.0
 40
0.3000000000000114
100
AcDbArc
 50
180.0
 51
270.0
  0
LINE
  5
11D9
330
1F
100
AcDbEntity
  8
0
  6
Continuous
 62
     7
370
    15
100
AcDbLine
 10
152.4311871093241
 20
158.098193466644
 30
0.0
 11
152.4311871093241
 21
157.9068923592374
 31
0.0
  0
ARC
  5
11DA
330
1F
100
AcDbEntity
  8
0
  6
Continuous
 62
     7
370
    15
100
AcDbCircle
 10
152.4311870196226
 20
157.606892530601
 30
0.0
 40
0.4913009055030102
100
AcDbArc
 50
0.0
 51
90.0
  0
LINE
  5
11DB
330
1F
100
AcDbEntity
  8
0
  6
Continuous
 62
     7
370
    15
100
AcDbLine
 10
152.922487707111
 20
157.6068928688571
 30
0.0
 11
152.7311865997044
 21
157.6068928688571
 31
0.0
  0
ARC
  5
11DC
330
1F
100
AcDbEntity
  8
0
  6
Continuous
 62
     7
370
    15
100
AcDbCircle
 10
152.4311870196226
 20
157.606892530601
 30
0.0
 40
0.2999999999999829
100
AcDbArc
 50
0.0
 51
90.0
  0
LINE
  5
11DD
330
1F
100
AcDbEntity
  8
0
  6
Continuous
 62
     7
370
    15
100
AcDbLine
 10
153.6898863327233
 20
158.098193466644
 30
0.0
 11
153.6898863327233
 21
158.2155913337871
 31
0.0
  0
LINE
  5
11DE
330
1F
100
AcDbEntity
  8
0
  6
Continuous
 62
     7
370
    15
100
AcDbLine
 10
153.6898863327233
 20
158.2155913337871
 30
0.0
 11
153.8811874401299
 21
158.4068924411937
 31
0.0
  0
LINE
  5
11DF
330
1F
100
AcDbEntity
  8
0
  6
Continuous
 62
     7
370
    15
100
AcDbLine
 10
153.8811874401299
 20
157.9068923592374
 30
0.0
 11
153.8811874401299
 21
158.4068924411937
 31
0.0
  0
LINE
  5
11E0
330
1F
100
AcDbEntity
  8
0
  6
Continuous
 62
     7
370
    15
100
AcDbLine
 10
153.6898863327233
 20
158.2155913337871
 30
0.0
 11
153.5311871033636
 21
158.2155913337871
 31
0.0
  0
LINE
  5
11E1
330
1F
100
AcDbEntity
  8
0
  6
Continuous
 62
     7
370
    15
100
AcDbLine
 10
153.8811874401299
 20
158.4068924411937
 30
0.0
 11
153.5311871033636
 21
158.4068924411937
 31
0.0
  0
LINE
  5
11E2
330
1F
100
AcDbEntity
  8
0
  6
Continuous
 62
     7
370
    15
100
AcDbLine
 10
152.2724878799645
 20
158.098193466644
 30
0.0
 11
152.0811867725579
 21
157.9068923592374
 31
0.0
  0
LINE
  5
11E3
330
1F
100
AcDbEntity
  8
0
  6
Continuous
 62
     7
370
    15
100
AcDbLine
 10
152.2724878799645
 20
158.098193466644
 30
0.0
 11
152.4311871093241
 21
158.098193466644
 31
0.0
  0
LINE
  5
11E4
330
1F
100
AcDbEntity
  8
0
  6
Continuous
 62
     7
370
    15
100
AcDbLine
 10
152.0811867725579
 20
157.9068923592374
 30
0.0
 11
152.4311871093241
 21
157.9068923592374
 31
0.0
  0
LINE
  5
11E5
330
1F
100
AcDbEntity
  8
0
  6
Continuous
 62
     7
370
    15
100
AcDbLine
 10
153.0398865055767
 20
157.4481927081749
 30
0.0
 11
153.2311866816608
 21
157.2568916007683
 31
0.0
  0
LINE
  5
11E6
330
1F
100
AcDbEntity
  8
0
  6
Continuous
 62
     7
370
    15
100
AcDbLine
 10
153.0398865055767
 20
157.4481927081749
 30
0.0
 11
153.0398865055767
 21
157.6068928688571
 31
0.0
  0
LINE
  5
11E7
330
1F
100
AcDbEntity
  8
0
  6
Continuous
 62
     7
370
    15
100
AcDbLine
 10
153.0398865055767
 20
157.6068928688571
 30
0.0
 11
153.2311866816608
 21
157.6068928688571
 31
0.0
  0
LINE
  5
11E8
330
1F
100
AcDbEntity
  8
0
  6
Continuous
 62
     7
370
    15
100
AcDbLine
 10
153.2311866816608
 20
157.2568916007683
 30
0.0
 11
153.2311866816608
 21
157.6068928688571
 31
0.0
  0
LINE
  5
11E9
330
1F
100
AcDbEntity
  8
0
  6
Continuous
 62
     7
370
    15
100
AcDbLine
 10
152.922487707111
 20
157.6068928688571
 30
0.0
 11
152.922487707111
 21
157.4481927081749
 31
0.0
  0
LINE
  5
11EA
330
1F
100
AcDbEntity
  8
0
  6
Continuous
 62
     7
370
    15
100
AcDbLine
 10
152.922487707111
 20
157.4481927081749
 30
0.0
 11
152.7311865997044
 21
157.2568916007683
 31
0.0
  0
LINE
  5
11EB
330
1F
100
AcDbEntity
  8
0
  6
Continuous
 62
     7
370
    15
100
AcDbLine
 10
152.7311865997044
 20
157.6068928688571
 30
0.0
 11
152.7311865997044
 21
157.2568916007683
 31
0.0
  0
ARC
  5
11EC
330
1F
100
AcDbEntity
  8
0
  6
Continuous
 62
     7
370
    15
100
AcDbCircle
 10
153.5311870196226
 20
157.606892530601
 30
0.0
 40
0.4913009055030102
100
AcDbArc
 50
90.0
 51
180.0
  0
ARC
  5
11ED
330
1F
100
AcDbEntity
  8
0
  6
Continuous
 62
     7
370
    15
100
AcDbCircle
 10
153.5311870196226
 20
157.606892530601
 30
0.0
 40
0.3000000000000114
100
AcDbArc
 50
90.0
 51
180.0
  0
LINE
  5
11EE
330
1F
100
AcDbEntity
  8
0
  6
Continuous
 62
     7
370
    15
100
AcDbLine
 10
152.922487707111
 20
157.4481927081749
 30
0.0
 11
153.0398865055767
 21
157.4481927081749
 31
0.0
  0
LINE
  5
11EF
330
1F
100
AcDbEntity
  8
0
  6
Continuous
 62
     7
370
    15
100
AcDbLine
 10
152.7311865997044
 20
157.2568916007683
 30
0.0
 11
153.2311866816608
 21
157.2568916007683
 31
0.0
  0
LINE
  5
11F0
330
1F
100
AcDbEntity
  8
0
  6
Continuous
 62
     7
370
    15
100
AcDbLine
 10
153.2311866816608
 20
158.7068928628966
 30
0.0
 11
153.2311866816608
 21
159.0568922683403
 31
0.0
  0
LINE
  5
11F1
330
1F
100
AcDbEntity
  8
0
  6
Continuous
 62
     7
370
    15
100
AcDbLine
 10
153.2311866816608
 20
159.0568922683403
 30
0.0
 11
152.7311865997044
 21
159.0568922683403
 31
0.0
  0
LINE
  5
11F2
330
1F
100
AcDbEntity
  8
0
  6
Continuous
 62
     7
370
    15
100
AcDbLine
 10
152.7311865997044
 20
159.0568922683403
 30
0.0
 11
152.7311865997044
 21
158.7068928628966
 31
0.0
  0
ARC
  5
11F3
330
1F
100
AcDbEntity
  8
0
  6
Continuous
 62
     7
370
    15
100
AcDbCircle
 10
152.4311870196226
 20
158.706892530601
 30
0.0
 40
0.2999999999999829
100
AcDbArc
 50
270.0
 51
0.0
  0
LINE
  5
11F4
330
1F
100
AcDbEntity
  8
0
  6
Continuous
 62
     7
370
    15
100
AcDbLine
 10
152.4311871093241
 20
158.4068924411937
 30
0.0
 11
152.0811867725579
 21
158.4068924411937
 31
0.0
  0
LINE
  5
11F5
330
1F
100
AcDbEntity
  8
0
  6
Continuous
 62
     7
370
    15
100
AcDbLine
 10
152.0811867725579
 20
158.4068924411937
 30
0.0
 11
152.0811867725579
 21
157.9068923592374
 31
0.0
  0
CIRCLE
  5
11F6
330
1F
100
AcDbEntity
  8
0
  6
Continuous
 62
     7
370
    15
100
AcDbCircle
 10
152.9811870196225
 20
158.156892530601
 30
0.0
 40
1.999999999999985
  0
LINE
  5
11F7
330
1F
100
AcDbEntity
  8
0
  6
Continuous
 62
     7
370
    15
100
AcDbLine
 10
152.922487707111
 20
158.7068928628966
 30
0.0
 11
152.7311865997044
 21
158.7068928628966
 31
0.0
  0
ARC
  5
11F8
330
1F
100
AcDbEntity
  8
0
  6
Continuous
 62
     7
370
    15
100
AcDbCircle
 10
152.4311870196226
 20
158.706892530601
 30
0.0
 40
0.4913009055030102
100
AcDbArc
 50
270.0
 51
0.0
  0
LINE
  5
11F9
330
1F
100
AcDbEntity
  8
0
  6
Continuous
 62
     7
370
    15
100
AcDbLine
 10
152.4311871093241
 20
158.2155913337871
 30
0.0
 11
152.4311871093241
 21
158.4068924411937
 31
0.0
  0
LINE
  5
11FA
330
1F
100
AcDbEntity
  8
0
  6
Continuous
 62
     7
370
    15
100
AcDbLine
 10
153.0398865055767
 20
158.8655911609337
 30
0.0
 11
153.2311866816608
 21
159.0568922683403
 31
0.0
  0
LINE
  5
11FB
330
1F
100
AcDbEntity
  8
0
  6
Continuous
 62
     7
370
    15
100
AcDbLine
 10
153.0398865055767
 20
158.8655911609337
 30
0.0
 11
152.922487707111
 21
158.8655911609337
 31
0.0
  0
LINE
  5
11FC
330
1F
100
AcDbEntity
  8
0
  6
Continuous
 62
     7
370
    15
100
AcDbLine
 10
152.922487707111
 20
158.8655911609337
 30
0.0
 11
152.7311865997044
 21
159.0568922683403
 31
0.0
  0
LINE
  5
11FD
330
1F
100
AcDbEntity
  8
0
  6
Continuous
 62
     7
370
    15
100
AcDbLine
 10
153.0398865055767
 20
158.7068928628966
 30
0.0
 11
153.0398865055767
 21
158.8655911609337
 31
0.0
  0
LINE
  5
11FE
330
1F
100
AcDbEntity
  8
0
  6
Continuous
 62
     7
370
    15
100
AcDbLine
 10
152.4311871093241
 20
158.2155913337871
 30
0.0
 11
152.2724878799645
 21
158.2155913337871
 31
0.0
  0
LINE
  5
11FF
330
1F
100
AcDbEntity
  8
0
  6
Continuous
 62
     7
370
    15
100
AcDbLine
 10
152.2724878799645
 20
158.2155913337871
 30
0.0
 11
152.0811867725579
 21
158.4068924411937
 31
0.0
  0
LINE
  5
1200
330
1F
100
AcDbEntity
  8
0
  6
Continuous
 62
     7
370
    15
100
AcDbLine
 10
152.922487707111
 20
158.8655911609337
 30
0.0
 11
152.922487707111
 21
158.7068928628966
 31
0.0
  0
LINE
  5
1201
330
1F
100
AcDbEntity
  8
0
  6
Continuous
 62
     7
370
    15
100
AcDbLine
 10
152.2724878799645
 20
158.2155913337871
 30
0.0
 11
152.2724878799645
 21
158.098193466644
 31
0.0
  0
LINE
  5
1202
330
1F
100
AcDbEntity
  8
0
  6
Continuous
 62
     7
370
    15
100
AcDbLine
 10
146.4224875730006
 20
152.2068917974636
 30
0.0
 11
146.2311864655939
 21
152.2068917974636
 31
0.0
  0
ARC
  5
1203
330
1F
100
AcDbEntity
  8
0
  6
Continuous
 62
     7
370
    15
100
AcDbCircle
 10
145.9311870196226
 20
152.2068925306007
 30
0.0
 40
0.4913009055030244
100
AcDbArc
 50
270.0
 51
0.0
  0
LINE
  5
1204
330
1F
100
AcDbEntity
  8
0
  6
Continuous
 62
     7
370
    15
100
AcDbLine
 10
145.9311869752137
 20
151.7155911996767
 30
0.0
 11
145.9311869752137
 21
151.9068923070833
 31
0.0
  0
ARC
  5
1205
330
1F
100
AcDbEntity
  8
0
  6
Continuous
 62
     7
370
    15
100
AcDbCircle
 10
145.9311870196226
 20
152.2068925306007
 30
0.0
 40
0.3000000000000114
100
AcDbArc
 50
270.0
 51
0.0
  0
LINE
  5
1206
330
1F
100
AcDbEntity
  8
0
  6
Continuous
 62
     7
370
    15
100
AcDbLine
 10
146.5398863714663
 20
152.3655910268232
 30
0.0
 11
146.7311874788729
 21
152.5568921342298
 31
0.0
  0
LINE
  5
1207
330
1F
100
AcDbEntity
  8
0
  6
Continuous
 62
     7
370
    15
100
AcDbLine
 10
146.5398863714663
 20
152.3655910268232
 30
0.0
 11
146.4224875730006
 21
152.3655910268232
 31
0.0
  0
LINE
  5
1208
330
1F
100
AcDbEntity
  8
0
  6
Continuous
 62
     7
370
    15
100
AcDbLine
 10
146.4224875730006
 20
152.3655910268232
 30
0.0
 11
146.2311864655939
 21
152.5568921342298
 31
0.0
  0
LINE
  5
1209
330
1F
100
AcDbEntity
  8
0
  6
Continuous
 62
     7
370
    15
100
AcDbLine
 10
146.7311874788729
 20
152.5568921342298
 30
0.0
 11
146.2311864655939
 21
152.5568921342298
 31
0.0
  0
CIRCLE
  5
120A
330
1F
100
AcDbEntity
  8
0
  6
Continuous
 62
     7
370
    15
100
AcDbCircle
 10
146.4811870196226
 20
151.6568925306007
 30
0.0
 40
2.0
  0
ARC
  5
120B
330
1F
100
AcDbEntity
  8
0
  6
Continuous
 62
     7
370
    15
100
AcDbCircle
 10
145.9311870196226
 20
151.1068925306007
 30
0.0
 40
0.3000000000000114
100
AcDbArc
 50
0.0
 51
90.0
  0
LINE
  5
120C
330
1F
100
AcDbEntity
  8
0
  6
Continuous
 62
     7
370
    15
100
AcDbLine
 10
146.2311864655939
 20
151.106891803424
 30
0.0
 11
146.2311864655939
 21
150.7568933293029
 31
0.0
  0
LINE
  5
120D
330
1F
100
AcDbEntity
  8
0
  6
Continuous
 62
     7
370
    15
100
AcDbLine
 10
146.2311864655939
 20
150.7568933293029
 30
0.0
 11
146.7311874788729
 21
150.7568933293029
 31
0.0
  0
LINE
  5
120E
330
1F
100
AcDbEntity
  8
0
  6
Continuous
 62
     7
370
    15
100
AcDbLine
 10
146.7311874788729
 20
150.7568933293029
 30
0.0
 11
146.7311874788729
 21
151.106891803424
 31
0.0
  0
ARC
  5
120F
330
1F
100
AcDbEntity
  8
0
  6
Continuous
 62
     7
370
    15
100
AcDbCircle
 10
147.0311870196226
 20
151.1068925306007
 30
0.0
 40
0.2999999999999971
100
AcDbArc
 50
89.99999999999674
 51
180.0
  0
LINE
  5
1210
330
1F
100
AcDbEntity
  8
0
  6
Continuous
 62
     7
370
    15
100
AcDbLine
 10
147.0311869692532
 20
151.4068931564495
 30
0.0
 11
147.3811873060194
 21
151.4068931564495
 31
0.0
  0
LINE
  5
1211
330
1F
100
AcDbEntity
  8
0
  6
Continuous
 62
     7
370
    15
100
AcDbLine
 10
147.3811873060194
 20
151.4068931564495
 30
0.0
 11
147.3811873060194
 21
151.9068923070833
 31
0.0
  0
LINE
  5
1212
330
1F
100
AcDbEntity
  8
0
  6
Continuous
 62
     7
370
    15
100
AcDbLine
 10
147.3811873060194
 20
151.9068923070833
 30
0.0
 11
147.0311869692532
 21
151.9068923070833
 31
0.0
  0
ARC
  5
1213
330
1F
100
AcDbEntity
  8
0
  6
Continuous
 62
     7
370
    15
100
AcDbCircle
 10
147.0311870196226
 20
152.2068925306007
 30
0.0
 40
0.2999999999999971
100
AcDbArc
 50
180.0
 51
270.0000000000033
  0
LINE
  5
1214
330
1F
100
AcDbEntity
  8
0
  6
Continuous
 62
     7
370
    15
100
AcDbLine
 10
146.7311874788729
 20
152.2068917974636
 30
0.0
 11
146.7311874788729
 21
152.5568921342298
 31
0.0
  0
LINE
  5
1215
330
1F
100
AcDbEntity
  8
0
  6
Continuous
 62
     7
370
    15
100
AcDbLine
 10
146.2311864655939
 20
152.5568921342298
 30
0.0
 11
146.2311864655939
 21
152.2068917974636
 31
0.0
  0
LINE
  5
1216
330
1F
100
AcDbEntity
  8
0
  6
Continuous
 62
     7
370
    15
100
AcDbLine
 10
145.9311869752137
 20
151.9068923070833
 30
0.0
 11
145.5811866384474
 21
151.9068923070833
 31
0.0
  0
LINE
  5
1217
330
1F
100
AcDbEntity
  8
0
  6
Continuous
 62
     7
370
    15
100
AcDbLine
 10
145.5811866384474
 20
151.9068923070833
 30
0.0
 11
145.5811866384474
 21
151.4068931564495
 31
0.0
  0
LINE
  5
1218
330
1F
100
AcDbEntity
  8
0
  6
Continuous
 62
     7
370
    15
100
AcDbLine
 10
145.5811866384474
 20
151.4068931564495
 30
0.0
 11
145.9311869752137
 21
151.4068931564495
 31
0.0
  0
LINE
  5
1219
330
1F
100
AcDbEntity
  8
0
  6
Continuous
 62
     7
370
    15
100
AcDbLine
 10
146.4224875730006
 20
152.3655910268232
 30
0.0
 11
146.4224875730006
 21
152.2068917974636
 31
0.0
  0
LINE
  5
121A
330
1F
100
AcDbEntity
  8
0
  6
Continuous
 62
     7
370
    15
100
AcDbLine
 10
146.4224875730006
 20
151.106891803424
 30
0.0
 11
146.2311864655939
 21
151.106891803424
 31
0.0
  0
LINE
  5
121B
330
1F
100
AcDbEntity
  8
0
  6
Continuous
 62
     7
370
    15
100
AcDbLine
 10
146.4224875730006
 20
151.106891803424
 30
0.0
 11
146.4224875730006
 21
150.9481925740644
 31
0.0
  0
LINE
  5
121C
330
1F
100
AcDbEntity
  8
0
  6
Continuous
 62
     7
370
    15
100
AcDbLine
 10
146.4224875730006
 20
150.9481925740644
 30
0.0
 11
146.2311864655939
 21
150.7568933293029
 31
0.0
  0
LINE
  5
121D
330
1F
100
AcDbEntity
  8
0
  6
Continuous
 62
     7
370
    15
100
AcDbLine
 10
145.9311869752137
 20
151.5981942638561
 30
0.0
 11
145.9311869752137
 21
151.4068931564495
 31
0.0
  0
ARC
  5
121E
330
1F
100
AcDbEntity
  8
0
  6
Continuous
 62
     7
370
    15
100
AcDbCircle
 10
145.9311870196226
 20
151.1068925306007
 30
0.0
 40
0.4913009055030244
100
AcDbArc
 50
0.0
 51
90.0
  0
LINE
  5
121F
330
1F
100
AcDbEntity
  8
0
  6
Continuous
 62
     7
370
    15
100
AcDbLine
 10
145.772487745854
 20
151.7155911996767
 30
0.0
 11
145.5811866384474
 21
151.9068923070833
 31
0.0
  0
LINE
  5
1220
330
1F
100
AcDbEntity
  8
0
  6
Continuous
 62
     7
370
    15
100
AcDbLine
 10
145.772487745854
 20
151.7155911996767
 30
0.0
 11
145.772487745854
 21
151.5981942638561
 31
0.0
  0
LINE
  5
1221
330
1F
100
AcDbEntity
  8
0
  6
Continuous
 62
     7
370
    15
100
AcDbLine
 10
145.772487745854
 20
151.5981942638561
 30
0.0
 11
145.5811866384474
 21
151.4068931564495
 31
0.0
  0
LINE
  5
1222
330
1F
100
AcDbEntity
  8
0
  6
Continuous
 62
     7
370
    15
100
AcDbLine
 10
145.9311869752137
 20
151.7155911996767
 30
0.0
 11
145.772487745854
 21
151.7155911996767
 31
0.0
  0
LINE
  5
1223
330
1F
100
AcDbEntity
  8
0
  6
Continuous
 62
     7
370
    15
100
AcDbLine
 10
146.5398863714663
 20
152.2068917974636
 30
0.0
 11
146.7311874788729
 21
152.2068917974636
 31
0.0
  0
LINE
  5
1224
330
1F
100
AcDbEntity
  8
0
  6
Continuous
 62
     7
370
    15
100
AcDbLine
 10
146.5398863714663
 20
152.2068917974636
 30
0.0
 11
146.5398863714663
 21
152.3655910268232
 31
0.0
  0
LINE
  5
1225
330
1F
100
AcDbEntity
  8
0
  6
Continuous
 62
     7
370
    15
100
AcDbLine
 10
147.0311869692532
 20
151.7155911996767
 30
0.0
 11
147.0311869692532
 21
151.9068923070833
 31
0.0
  0
ARC
  5
1226
330
1F
100
AcDbEntity
  8
0
  6
Continuous
 62
     7
370
    15
100
AcDbCircle
 10
147.0311870196226
 20
152.2068925306007
 30
0.0
 40
0.4913009055030244
100
AcDbArc
 50
180.0
 51
270.0000000000033
  0
LINE
  5
1227
330
1F
100
AcDbEntity
  8
0
  6
Continuous
 62
     7
370
    15
100
AcDbLine
 10
147.1898861986128
 20
151.7155911996767
 30
0.0
 11
147.3811873060194
 21
151.9068923070833
 31
0.0
  0
LINE
  5
1228
330
1F
100
AcDbEntity
  8
0
  6
Continuous
 62
     7
370
    15
100
AcDbLine
 10
147.1898861986128
 20
151.7155911996767
 30
0.0
 11
147.0311869692532
 21
151.7155911996767
 31
0.0
  0
LINE
  5
1229
330
1F
100
AcDbEntity
  8
0
  6
Continuous
 62
     7
370
    15
100
AcDbLine
 10
147.1898861986128
 20
151.5981942638561
 30
0.0
 11
147.3811873060194
 21
151.4068931564495
 31
0.0
  0
LINE
  5
122A
330
1F
100
AcDbEntity
  8
0
  6
Continuous
 62
     7
370
    15
100
AcDbLine
 10
147.1898861986128
 20
151.5981942638561
 30
0.0
 11
147.1898861986128
 21
151.7155911996767
 31
0.0
  0
LINE
  5
122B
330
1F
100
AcDbEntity
  8
0
  6
Continuous
 62
     7
370
    15
100
AcDbLine
 10
147.0311869692532
 20
151.5981942638561
 30
0.0
 11
147.0311869692532
 21
151.4068931564495
 31
0.0
  0
LINE
  5
122C
330
1F
100
AcDbEntity
  8
0
  6
Continuous
 62
     7
370
    15
100
AcDbLine
 10
147.0311869692532
 20
151.5981942638561
 30
0.0
 11
147.1898861986128
 21
151.5981942638561
 31
0.0
  0
LINE
  5
122D
330
1F
100
AcDbEntity
  8
0
  6
Continuous
 62
     7
370
    15
100
AcDbLine
 10
146.5398863714663
 20
151.106891803424
 30
0.0
 11
146.7311874788729
 21
151.106891803424
 31
0.0
  0
ARC
  5
122E
330
1F
100
AcDbEntity
  8
0
  6
Continuous
 62
     7
370
    15
100
AcDbCircle
 10
147.0311870196226
 20
151.1068925306007
 30
0.0
 40
0.4913009055030244
100
AcDbArc
 50
89.99999999999674
 51
180.0
  0
LINE
  5
122F
330
1F
100
AcDbEntity
  8
0
  6
Continuous
 62
     7
370
    15
100
AcDbLine
 10
146.5398863714663
 20
150.9481925740644
 30
0.0
 11
146.7311874788729
 21
150.7568933293029
 31
0.0
  0
LINE
  5
1230
330
1F
100
AcDbEntity
  8
0
  6
Continuous
 62
     7
370
    15
100
AcDbLine
 10
146.5398863714663
 20
150.9481925740644
 30
0.0
 11
146.5398863714663
 21
151.106891803424
 31
0.0
  0
LINE
  5
1231
330
1F
100
AcDbEntity
  8
0
  6
Continuous
 62
     7
370
    15
100
AcDbLine
 10
146.4224875730006
 20
150.9481925740644
 30
0.0
 11
146.5398863714663
 21
150.9481925740644
 31
0.0
  0
LINE
  5
1232
330
1F
100
AcDbEntity
  8
0
  6
Continuous
 62
     7
370
    15
100
AcDbLine
 10
145.772487745854
 20
151.5981942638561
 30
0.0
 11
145.9311869752137
 21
151.5981942638561
 31
0.0
  0
CIRCLE
  5
1233
330
1F
100
AcDbEntity
  8
0
  6
Continuous
 62
     7
370
    15
100
AcDbCircle
 10
146.4811870196226
 20
151.6568925306007
 30
0.0
 40
2.200000000000017
  0
CIRCLE
  5
1234
330
1F
100
AcDbEntity
  8
0
  6
Continuous
 62
     7
370
    15
100
AcDbCircle
 10
152.9811870196225
 20
158.156892530601
 30
0.0
 40
2.200000000000045
  0
CIRCLE
  5
1235
330
1F
100
AcDbEntity
  8
0
  6
Continuous
 62
     7
370
    15
100
AcDbCircle
 10
109.9811870196229
 20
188.1568925306005
 30
0.0
 40
2.199999999999988
  0
CIRCLE
  5
1236
330
1F
100
AcDbEntity
  8
0
  6
Continuous
 62
     7
370
    15
100
AcDbCircle
 10
116.4811870196229
 20
194.6568925306007
 30
0.0
 40
2.199999999999988
  0
LINE
  5
1237
330
1F
100
AcDbEntity
  8
0
  6
Continuous
 62
     7
370
    15
100
AcDbLine
 10
151.9811869424311
 20
155.6568924560949
 30
0.0
 11
152.4811870243875
 21
155.6568924560949
 31
0.0
  0
ARC
  5
1238
330
1F
100
AcDbEntity
  8
0
  6
Continuous
 62
     7
370
    15
100
AcDbCircle
 10
151.9811870196226
 20
152.656892530601
 30
0.0
 40
3.000000000000028
100
AcDbArc
 50
90.0
 51
180.0
  0
LINE
  5
1239
330
1F
100
AcDbEntity
  8
0
  6
Continuous
 62
     7
370
    15
100
AcDbLine
 10
148.9811864506928
 20
152.1568928137228
 30
0.0
 11
148.9811864506928
 21
152.6568919643566
 31
0.0
  0
ARC
  5
123A
330
1F
100
AcDbEntity
  8
0
  6
Continuous
 62
     7
370
    15
100
AcDbCircle
 10
145.9811870196226
 20
152.1568925306007
 30
0.0
 40
3.0
100
AcDbArc
 50
270.0
 51
0.0000000000016284
  0
LINE
  5
123B
330
1F
100
AcDbEntity
  8
0
  6
Continuous
 62
     7
370
    15
100
AcDbLine
 10
110.4811885219542
 20
149.1568923219845
 30
0.0
 11
145.9811878215996
 21
149.1568923219845
 31
0.0
  0
ARC
  5
123C
330
1F
100
AcDbEntity
  8
0
  6
Continuous
 62
     7
370
    15
100
AcDbCircle
 10
110.4811870196229
 20
152.1568925306007
 30
0.0
 40
3.000000000000014
100
AcDbArc
 50
180.0
 51
270.0
  0
LINE
  5
123D
330
1F
100
AcDbEntity
  8
0
  6
Continuous
 62
     7
370
    15
100
AcDbLine
 10
107.4811861675707
 20
187.6568921133682
 30
0.0
 11
107.4811861675707
 21
152.1568928137228
 31
0.0
  0
ARC
  5
123E
330
1F
100
AcDbEntity
  8
0
  6
Continuous
 62
     7
370
    15
100
AcDbCircle
 10
110.4811870196229
 20
187.6568925306005
 30
0.0
 40
3.000000000000014
100
AcDbArc
 50
90.0
 51
180.0
  0
LINE
  5
123F
330
1F
100
AcDbEntity
  8
0
  6
Continuous
 62
     7
370
    15
100
AcDbLine
 10
110.9811858099428
 20
190.6568926051065
 30
0.0
 11
110.4811885219542
 21
190.6568926051065
 31
0.0
  0
ARC
  5
1240
330
1F
100
AcDbEntity
  8
0
  6
Continuous
 62
     7
370
    15
100
AcDbCircle
 10
110.9811870196229
 20
193.6568925306005
 30
0.0
 40
3.000000000000028
100
AcDbArc
 50
270.0
 51
0.0
  0
LINE
  5
1241
330
1F
100
AcDbEntity
  8
0
  6
Continuous
 62
     7
370
    15
100
AcDbLine
 10
113.9811881643263
 20
194.1568922474786
 30
0.0
 11
113.9811881643263
 21
193.6568930968448
 31
0.0
  0
ARC
  5
1242
330
1F
100
AcDbEntity
  8
0
  6
Continuous
 62
     7
370
    15
100
AcDbCircle
 10
116.9811870196229
 20
194.1568925306007
 30
0.0
 40
3.0
100
AcDbArc
 50
90.0
 51
180.0
  0
LINE
  5
1243
330
1F
100
AcDbEntity
  8
0
  6
Continuous
 62
     7
370
    15
100
AcDbLine
 10
152.4811870243875
 20
197.156892739217
 30
0.0
 11
116.9811867934195
 21
197.156892739217
 31
0.0
  0
ARC
  5
1244
330
1F
100
AcDbEntity
  8
0
  6
Continuous
 62
     7
370
    15
100
AcDbCircle
 10
152.4811870196226
 20
194.1568925306007
 30
0.0
 40
3.0
100
AcDbArc
 50
0.0
 51
90.0
  0
LINE
  5
1245
330
1F
100
AcDbEntity
  8
0
  6
Continuous
 62
     7
370
    15
100
AcDbLine
 10
155.4811865848032
 20
158.6568929478332
 30
0.0
 11
155.4811865848032
 21
194.1568922474786
 31
0.0
  0
ARC
  5
1246
330
1F
100
AcDbEntity
  8
0
  6
Continuous
 62
     7
370
    15
100
AcDbCircle
 10
152.4811870196226
 20
158.656892530601
 30
0.0
 40
3.0
100
AcDbArc
 50
270.0
 51
0.0
  0
ARC
  5
1247
330
1F
100
AcDbEntity
  8
0
  6
Continuous
 62
     7
370
    15
100
AcDbCircle
 10
110.4811870196229
 20
152.1568925306007
 30
0.0
 40
4.000000000000014
100
AcDbArc
 50
180.0
 51
270.0
  0
LINE
  5
1248
330
1F
100
AcDbEntity
  8
0
  6
Continuous
 62
     7
370
    15
100
AcDbLine
 10
106.4811878663031
 20
194.1568922474786
 30
0.0
 11
106.4811878663031
 21
152.1568928137228
 31
0.0
  0
LINE
  5
1249
330
1F
100
AcDbEntity
  8
0
  6
Continuous
 62
     7
370
    15
100
AcDbLine
 10
107.4811861675707
 20
187.6568921133682
 30
0.0
 11
107.4811861675707
 21
152.1568928137228
 31
0.0
  0
LINE
  5
124A
330
1F
100
AcDbEntity
  8
0
  6
Continuous
 62
     7
370
    15
100
AcDbLine
 10
110.4811885219542
 20
149.1568923219845
 30
0.0
 11
145.9811878215996
 21
149.1568923219845
 31
0.0
  0
ARC
  5
124B
330
1F
100
AcDbEntity
  8
0
  6
Continuous
 62
     7
370
    15
100
AcDbCircle
 10
145.9811870196225
 20
152.1568925306007
 30
0.0
 40
3.0
100
AcDbArc
 50
270.0
 51
359.9999999999996
  0
LINE
  5
124C
330
1F
100
AcDbEntity
  8
0
  6
Continuous
 62
     7
370
    15
100
AcDbLine
 10
148.9811864506928
 20
152.1568928137228
 30
0.0
 11
148.9811864506928
 21
152.6568919643566
 31
0.0
  0
ARC
  5
124D
330
1F
100
AcDbEntity
  8
0
  6
Continuous
 62
     7
370
    15
100
AcDbCircle
 10
151.9811870196226
 20
152.6568925306009
 30
0.0
 40
3.000000000000014
100
AcDbArc
 50
90.0
 51
180.0
  0
LINE
  5
124E
330
1F
100
AcDbEntity
  8
0
  6
Continuous
 62
     7
370
    15
100
AcDbLine
 10
151.9811869424311
 20
155.6568924560949
 30
0.0
 11
152.4811870243875
 21
155.6568924560949
 31
0.0
  0
CIRCLE
  5
124F
330
1F
100
AcDbEntity
  8
0
  6
Continuous
 62
     7
370
    15
100
AcDbCircle
 10
152.4811870196228
 20
152.156892530601
 30
0.0
 40
3.099999999999994
  0
CIRCLE
  5
1250
330
1F
100
AcDbEntity
  8
0
  6
Continuous
 62
     7
370
    15
100
AcDbCircle
 10
110.4811870196229
 20
194.1568925306006
 30
0.0
 40
3.099999999999965
  0
ARC
  5
1251
330
1F
100
AcDbEntity
  8
0
  6
Continuous
 62
     7
370
    15
100
AcDbCircle
 10
152.4811870196226
 20
158.6568925306009
 30
0.0
 40
2.999999999999985
100
AcDbArc
 50
270.0
 51
0.0
  0
LINE
  5
1252
330
1F
100
AcDbEntity
  8
0
  6
Continuous
 62
     7
370
    15
100
AcDbLine
 10
155.4811865848032
 20
158.6568929478332
 30
0.0
 11
155.4811865848032
 21
194.1568922474786
 31
0.0
  0
ARC
  5
1253
330
1F
100
AcDbEntity
  8
0
  6
Continuous
 62
     7
370
    15
100
AcDbCircle
 10
110.4811870196229
 20
194.1568925306007
 30
0.0
 40
4.000000000000028
100
AcDbArc
 50
90.0
 51
180.0
  0
LINE
  5
1254
330
1F
100
AcDbEntity
  8
0
  6
Continuous
 62
     7
370
    15
100
AcDbLine
 10
152.4811870243875
 20
197.156892739217
 30
0.0
 11
116.9811867934195
 21
197.156892739217
 31
0.0
  0
ARC
  5
1255
330
1F
100
AcDbEntity
  8
0
  6
Continuous
 62
     7
370
    15
100
AcDbCircle
 10
116.9811870196229
 20
194.1568925306007
 30
0.0
 40
3.0
100
AcDbArc
 50
90.0
 51
180.0
  0
LINE
  5
1256
330
1F
100
AcDbEntity
  8
0
  6
Continuous
 62
     7
370
    15
100
AcDbLine
 10
113.9811881643263
 20
194.1568922474786
 30
0.0
 11
113.9811881643263
 21
193.6568930968448
 31
0.0
  0
ARC
  5
1257
330
1F
100
AcDbEntity
  8
0
  6
Continuous
 62
     7
370
    15
100
AcDbCircle
 10
110.9811870196229
 20
193.6568925306005
 30
0.0
 40
3.000000000000028
100
AcDbArc
 50
270.0
 51
0.0
  0
LINE
  5
1258
330
1F
100
AcDbEntity
  8
0
  6
Continuous
 62
     7
370
    15
100
AcDbLine
 10
110.9811858099428
 20
190.6568926051065
 30
0.0
 11
110.4811885219542
 21
190.6568926051065
 31
0.0
  0
ARC
  5
1259
330
1F
100
AcDbEntity
  8
0
  6
Continuous
 62
     7
370
    15
100
AcDbCircle
 10
110.4811870196229
 20
187.6568925306005
 30
0.0
 40
3.000000000000014
100
AcDbArc
 50
90.0
 51
180.0
  0
LINE
  5
125A
330
1F
100
AcDbEntity
  8
0
  6
Continuous
 62
     7
370
    15
100
AcDbLine
 10
152.4811870243875
 20
198.1568929031297
 30
0.0
 11
110.4811885219542
 21
198.1568929031297
 31
0.0
  0
ARC
  5
125B
330
1F
100
AcDbEntity
  8
0
  6
Continuous
 62
     7
370
    15
100
AcDbCircle
 10
152.4811870196226
 20
194.1568925306007
 30
0.0
 40
4.000000000000028
100
AcDbArc
 50
0.0
 51
90.0
  0
LINE
  5
125C
330
1F
100
AcDbEntity
  8
0
  6
Continuous
 62
     7
370
    15
100
AcDbLine
 10
156.481186748716
 20
152.1568928137228
 30
0.0
 11
156.481186748716
 21
194.1568922474786
 31
0.0
  0
ARC
  5
125D
330
1F
100
AcDbEntity
  8
0
  6
Continuous
 62
     7
370
    15
100
AcDbCircle
 10
152.4811870196226
 20
194.1568925306007
 30
0.0
 40
3.0
100
AcDbArc
 50
0.0
 51
90.0
  0
ARC
  5
125E
330
1F
100
AcDbEntity
  8
0
  6
Continuous
 62
     7
370
    15
100
AcDbCircle
 10
110.4811870196229
 20
152.1568925306007
 30
0.0
 40
3.000000000000014
100
AcDbArc
 50
180.0
 51
270.0
  0
ARC
  5
125F
330
1F
100
AcDbEntity
  8
0
  6
Continuous
 62
     7
370
    15
100
AcDbCircle
 10
152.4811870196226
 20
152.1568925306007
 30
0.0
 40
4.0
100
AcDbArc
 50
270.0
 51
0.0
  0
LINE
  5
1260
330
1F
100
AcDbEntity
  8
0
  6
Continuous
 62
     7
370
    15
100
AcDbLine
 10
110.4811885219542
 20
148.1568921580717
 30
0.0
 11
152.4811870243875
 21
148.1568921580717
 31
0.0
  0
CIRCLE
  5
1261
330
1F
100
AcDbEntity
  8
0
  6
Continuous
 62
     7
370
    15
100
AcDbCircle
 10
110.4811870196229
 20
194.1568925306006
 30
0.0
 40
1.800000000000011
  0
CIRCLE
  5
1262
330
1F
100
AcDbEntity
  8
0
  6
Continuous
 62
     7
370
    15
100
AcDbCircle
 10
152.4811870196228
 20
152.156892530601
 30
0.0
 40
1.800000000000011
  0
LINE
  5
1263
330
1F
100
AcDbEntity
  8
0
  6
Continuous
 62
     7
370
    15
100
AcDbLine
 10
102.6226066809622
 20
168.2983139753148
 30
0.0
 11
102.6226066809622
 21
160.0154709294244
 31
0.0
  0
LINE
  5
1264
330
1F
100
AcDbEntity
  8
0
  6
Continuous
 62
     7
370
    15
100
AcDbLine
 10
102.3397640150515
 20
160.0154709294244
 30
0.0
 11
102.3397640150515
 21
168.2983139753148
 31
0.0
  0
DIMENSION
  5
1265
330
1F
100
AcDbEntity
  8
0
100
AcDbDimension
  2
*D11
 10
156.4811870196225
 20
211.2086010255033
 30
0.0
 11
130.8988291682082
 21
211.2086010255033
 31
0.0
 70
   160
 71
     2
 42
49.99999999999966
  3
ISO-25
100
AcDbAlignedDimension
 13
106.4811870196229
 23
194.1568925306007
 33
0.0
 14
156.4811870196225
 24
194.1568925306007
 34
0.0
100
AcDbRotatedDimension
  0
DIMENSION
  5
1266
330
1F
100
AcDbEntity
  8
0
100
AcDbDimension
  2
*D12
 10
172.1653023074655
 20
148.1568925306007
 30
0.0
 11
172.1653023074655
 21
171.7834140893099
 31
0.0
 70
   160
 71
     2
 42
50.0
  3
ISO-25
100
AcDbAlignedDimension
 13
152.4811870196226
 23
198.1568925306007
 33
0.0
 14
152.4811870196226
 24
148.1568925306007
 34
0.0
 50
90.0
100
AcDbRotatedDimension
  0
SPLINE
  5
1267
330
1F
100
AcDbEntity
  8
0
  6
Continuous
 62
     7
370
    15
100
AcDbSpline
210
0.0
220
0.0
230
1.0
 70
    24
 71
     1
 72
     4
 73
     2
 74
     0
 42
0.0000000001
 43
0.0000000001
 40
0.0
 40
0.0
 40
1.0
 40
1.0
 10
106.4811878663031
 20
101.2558364831626
 30
0.0
 10
104.9811885517565
 20
101.2558364831626
 30
0.0
  0
SPLINE
  5
1268
330
1F
100
AcDbEntity
  8
0
  6
Continuous
 62
     7
370
    15
100
AcDbSpline
210
0.0
220
0.0
230
1.0
 70
    24
 71
     1
 72
     4
 73
     2
 74
     0
 42
0.0000000001
 43
0.0000000001
 40
0.0
 40
0.0
 40
1.0
 40
1.0
 10
104.9811885517565
 20
89.75583739213352
 30
0.0
 10
106.4811878663031
 20
89.75583739213352
 30
0.0
  0
SPLINE
  5
1269
330
1F
100
AcDbEntity
  8
0
  6
Continuous
 62
     7
370
    15
100
AcDbSpline
210
0.0
220
0.0
230
1.0
 70
    24
 71
     1
 72
     4
 73
     2
 74
     0
 42
0.0000000001
 43
0.0000000001
 40
0.0
 40
0.0
 40
1.0
 40
1.0
 10
104.9811885517565
 20
100.5058368258894
 30
0.0
 10
103.4811855119196
 20
100.5058368258894
 30
0.0
  0
SPLINE
  5
126A
330
1F
100
AcDbEntity
  8
0
  6
Continuous
 62
     7
370
    15
100
AcDbSpline
210
0.0
220
0.0
230
1.0
 70
    24
 71
     1
 72
     4
 73
     2
 74
     0
 42
0.0000000001
 43
0.0000000001
 40
0.0
 40
0.0
 40
1.0
 40
1.0
 10
103.4811855119196
 20
90.50583704940681
 30
0.0
 10
104.9811885517565
 20
90.50583704940681
 30
0.0
  0
SPLINE
  5
126B
330
1F
100
AcDbEntity
  8
0
  6
Continuous
 62
     7
370
    15
100
AcDbSpline
210
0.0
220
0.0
230
1.0
 70
    24
 71
     1
 72
     4
 73
     2
 74
     0
 42
0.0000000001
 43
0.0000000001
 40
0.0
 40
0.0
 40
1.0
 40
1.0
 10
101.4811851840941
 20
90.50583704940681
 30
0.0
 10
102.3397640150515
 20
91.36441588036422
 30
0.0
  0
SPLINE
  5
126C
330
1F
100
AcDbEntity
  8
0
  6
Continuous
 62
     7
370
    15
100
AcDbSpline
210
0.0
220
0.0
230
1.0
 70
    24
 71
     1
 72
     4
 73
     2
 74
     0
 42
0.0000000001
 43
0.0000000001
 40
0.0
 40
0.0
 40
1.0
 40
1.0
 10
102.3397640150515
 20
99.64725799493198
 30
0.0
 10
101.4811851840941
 20
100.5058368258894
 30
0.0
  0
SPLINE
  5
126D
330
1F
100
AcDbEntity
  8
0
  6
Continuous
 62
     7
370
    15
100
AcDbSpline
210
0.0
220
0.0
230
1.0
 70
    24
 71
     1
 72
     4
 73
     2
 74
     0
 42
0.0000000001
 43
0.0000000001
 40
0.0
 40
0.0
 40
1.0
 40
1.0
 10
103.4811855119196
 20
100.5058368258894
 30
0.0
 10
102.6226066809622
 20
99.64725799493198
 30
0.0
  0
SPLINE
  5
126E
330
1F
100
AcDbEntity
  8
0
  6
Continuous
 62
     7
370
    15
100
AcDbSpline
210
0.0
220
0.0
230
1.0
 70
    24
 71
     1
 72
     4
 73
     2
 74
     0
 42
0.0000000001
 43
0.0000000001
 40
0.0
 40
0.0
 40
1.0
 40
1.0
 10
102.6226066809622
 20
91.36441588036422
 30
0.0
 10
103.4811855119196
 20
90.50583704940681
 30
0.0
  0
SPLINE
  5
126F
330
1F
100
AcDbEntity
  8
0
  6
Continuous
 62
     7
370
    15
100
AcDbSpline
210
0.0
220
0.0
230
1.0
 70
    24
 71
     1
 72
     4
 73
     2
 74
     0
 42
0.0000000001
 43
0.0000000001
 40
0.0
 40
0.0
 40
1.0
 40
1.0
 10
101.4811851840941
 20
100.5058368258894
 30
0.0
 10
97.78118960675875
 20
100.5058368258894
 30
0.0
  0
SPLINE
  5
1270
330
1F
100
AcDbEntity
  8
0
  6
Continuous
 62
     7
370
    15
100
AcDbSpline
210
0.0
220
0.0
230
1.0
 70
    24
 71
     1
 72
     4
 73
     2
 74
     0
 42
0.0000000001
 43
0.0000000001
 40
0.0
 40
0.0
 40
1.0
 40
1.0
 10
97.78118960675875
 20
90.50583704940681
 30
0.0
 10
101.4811851840941
 20
90.50583704940681
 30
0.0
  0
ARC
  5
1271
330
1F
100
AcDbEntity
  8
0
  6
Continuous
 62
     7
370
    15
100
AcDbCircle
 10
96.78118701962297
 20
100.0058368681645
 30
0.0
 40
0.5
100
AcDbArc
 50
0.0
 51
179.9999999999967
  0
ARC
  5
1272
330
1F
100
AcDbEntity
  8
0
  6
Continuous
 62
     7
370
    15
100
AcDbCircle
 10
96.78118701962297
 20
91.00583686816458
 30
0.0
 40
0.5
100
AcDbArc
 50
180.0
 51
0.0
  0
SPLINE
  5
1273
330
1F
100
AcDbEntity
  8
0
  6
Continuous
 62
     7
370
    15
100
AcDbSpline
210
0.0
220
0.0
230
1.0
 70
    24
 71
     1
 72
     4
 73
     2
 74
     0
 42
0.0000000001
 43
0.0000000001
 40
0.0
 40
0.0
 40
1.0
 40
1.0
 10
96.28118656692187
 20
100.005836743933
 30
0.0
 10
95.8811872464148
 20
100.005836743933
 30
0.0
  0
SPLINE
  5
1274
330
1F
100
AcDbEntity
  8
0
  6
Continuous
 62
     7
370
    15
100
AcDbSpline
210
0.0
220
0.0
230
1.0
 70
    24
 71
     1
 72
     4
 73
     2
 74
     0
 42
0.0000000001
 43
0.0000000001
 40
0.0
 40
0.0
 40
1.0
 40
1.0
 10
95.8811872464148
 20
91.00583620004062
 30
0.0
 10
96.28118656692187
 20
91.00583620004062
 30
0.0
  0
SPLINE
  5
1275
330
1F
100
AcDbEntity
  8
0
  6
Continuous
 62
     7
370
    15
100
AcDbSpline
210
0.0
220
0.0
230
1.0
 70
    24
 71
     1
 72
     4
 73
     2
 74
     0
 42
0.0000000001
 43
0.0000000001
 40
0.0
 40
0.0
 40
1.0
 40
1.0
 10
95.8811872464148
 20
100.005836743933
 30
0.0
 10
95.78118555364289
 20
99.90583691380624
 30
0.0
  0
SPLINE
  5
1276
330
1F
100
AcDbEntity
  8
0
  6
Continuous
 62
     7
370
    15
100
AcDbSpline
210
0.0
220
0.0
230
1.0
 70
    24
 71
     1
 72
     4
 73
     2
 74
     0
 42
0.0000000001
 43
0.0000000001
 40
0.0
 40
0.0
 40
1.0
 40
1.0
 10
95.78118555364289
 20
91.10583603016738
 30
0.0
 10
95.8811872464148
 20
91.00583620004062
 30
0.0
  0
SPLINE
  5
1277
330
1F
100
AcDbEntity
  8
0
  6
Continuous
 62
     7
370
    15
100
AcDbSpline
210
0.0
220
0.0
230
1.0
 70
    24
 71
     1
 72
     4
 73
     2
 74
     0
 42
0.0000000001
 43
0.0000000001
 40
0.0
 40
0.0
 40
1.0
 40
1.0
 10
97.78118960675875
 20
100.005836743933
 30
0.0
 10
97.28118859347979
 20
100.005836743933
 30
0.0
  0
SPLINE
  5
1278
330
1F
100
AcDbEntity
  8
0
  6
Continuous
 62
     7
370
    15
100
AcDbSpline
210
0.0
220
0.0
230
1.0
 70
    24
 71
     1
 72
     4
 73
     2
 74
     0
 42
0.0000000001
 43
0.0000000001
 40
0.0
 40
0.0
 40
1.0
 40
1.0
 10
97.28118859347979
 20
91.00583620004062
 30
0.0
 10
97.78118960675875
 20
91.00583620004062
 30
0.0
  0
ARC
  5
1279
330
1F
100
AcDbEntity
  8
0
  6
Continuous
 62
     7
370
    15
100
AcDbCircle
 10
102.4811870196229
 20
99.78867958063915
 30
0.0
 40
0.1999999999999996
100
AcDbArc
 50
224.9999999999954
 51
314.9999999999968
  0
ARC
  5
127A
330
1F
100
AcDbEntity
  8
0
  6
Continuous
 62
     7
370
    15
100
AcDbCircle
 10
102.4811870196229
 20
91.22299415568994
 30
0.0
 40
0.2000000000000096
100
AcDbArc
 50
45.00000000000327
 51
134.9999999999999
  0
LINE
  5
127B
330
1F
100
AcDbEntity
  8
0
  6
Continuous
 62
     7
370
    15
100
AcDbLine
 10
104.9811885517565
 20
95.50583600632549
 30
0.0
 11
104.9811885517565
 21
89.75583739213352
 31
0.0
  0
LINE
  5
127C
330
1F
100
AcDbEntity
  8
0
  6
Continuous
 62
     7
370
    15
100
AcDbLine
 10
104.9811885517565
 20
101.2558364831626
 30
0.0
 11
104.9811885517565
 21
95.50583600632549
 31
0.0
  0
LINE
  5
127D
330
1F
100
AcDbEntity
  8
0
  6
Continuous
 62
     7
370
    15
100
AcDbLine
 10
103.4811855119196
 20
95.50583600632549
 30
0.0
 11
103.4811855119196
 21
90.50583704940681
 31
0.0
  0
LINE
  5
127E
330
1F
100
AcDbEntity
  8
0
  6
Continuous
 62
     7
370
    15
100
AcDbLine
 10
103.4811855119196
 20
100.5058368258894
 30
0.0
 11
103.4811855119196
 21
95.50583600632549
 31
0.0
  0
LINE
  5
127F
330
1F
100
AcDbEntity
  8
0
  6
Continuous
 62
     7
370
    15
100
AcDbLine
 10
101.4811851840941
 20
95.50583600632549
 30
0.0
 11
101.4811851840941
 21
90.50583704940681
 31
0.0
  0
LINE
  5
1280
330
1F
100
AcDbEntity
  8
0
  6
Continuous
 62
     7
370
    15
100
AcDbLine
 10
101.4811851840941
 20
100.5058368258894
 30
0.0
 11
101.4811851840941
 21
95.50583600632549
 31
0.0
  0
LINE
  5
1281
330
1F
100
AcDbEntity
  8
0
  6
Continuous
 62
     7
370
    15
100
AcDbLine
 10
97.78118960675875
 20
95.50583600632549
 30
0.0
 11
97.78118960675875
 21
90.50583704940681
 31
0.0
  0
LINE
  5
1282
330
1F
100
AcDbEntity
  8
0
  6
Continuous
 62
     7
370
    15
100
AcDbLine
 10
97.78118960675875
 20
100.5058368258894
 30
0.0
 11
97.78118960675875
 21
95.50583600632549
 31
0.0
  0
LINE
  5
1283
330
1F
100
AcDbEntity
  8
0
  6
Continuous
 62
     7
370
    15
100
AcDbLine
 10
97.28118859347979
 20
95.50583600632553
 30
0.0
 11
97.28118859347979
 21
91.00583620004062
 31
0.0
  0
LINE
  5
1284
330
1F
100
AcDbEntity
  8
0
  6
Continuous
 62
     7
370
    15
100
AcDbLine
 10
97.28118859347979
 20
100.005836743933
 30
0.0
 11
97.28118859347979
 21
95.50583600632553
 31
0.0
  0
LINE
  5
1285
330
1F
100
AcDbEntity
  8
0
  6
Continuous
 62
     7
370
    15
100
AcDbLine
 10
96.28118656692187
 20
95.50583600632553
 30
0.0
 11
96.28118656692187
 21
91.00583620004062
 31
0.0
  0
LINE
  5
1286
330
1F
100
AcDbEntity
  8
0
  6
Continuous
 62
     7
370
    15
100
AcDbLine
 10
96.28118656692187
 20
100.005836743933
 30
0.0
 11
96.28118656692187
 21
95.50583600632553
 31
0.0
  0
LINE
  5
1287
330
1F
100
AcDbEntity
  8
0
  6
Continuous
 62
     7
370
    15
100
AcDbLine
 10
95.8811872464148
 20
100.005836743933
 30
0.0
 11
95.8811872464148
 21
91.00583620004062
 31
0.0
  0
LINE
  5
1288
330
1F
100
AcDbEntity
  8
0
  6
Continuous
 62
     7
370
    15
100
AcDbLine
 10
95.78118555364289
 20
91.10583603016738
 30
0.0
 11
95.78118555364289
 21
99.90583691380624
 31
0.0
  0
LINE
  5
1289
330
1F
100
AcDbEntity
  8
0
  6
Continuous
 62
     7
370
    15
100
AcDbLine
 10
106.4011872571436
 20
101.0058369078457
 30
0.0
 11
106.4811878663031
 21
101.0058369078457
 31
0.0
  0
LINE
  5
128A
330
1F
100
AcDbEntity
  8
0
  6
Continuous
 62
     7
370
    15
100
AcDbLine
 10
106.4811878663031
 20
100.0058367439329
 30
0.0
 11
106.4011872571436
 21
100.0058367439329
 31
0.0
  0
LINE
  5
128B
330
1F
100
AcDbEntity
  8
0
  6
Continuous
 62
     7
370
    15
100
AcDbLine
 10
106.4011872571436
 20
100.0058367439329
 30
0.0
 11
106.4011872571436
 21
101.0058369078457
 31
0.0
  0
LINE
  5
128C
330
1F
100
AcDbEntity
  8
0
  6
Continuous
 62
     7
370
    15
100
AcDbLine
 10
106.4011872571436
 20
92.00583636395334
 30
0.0
 11
106.4811878663031
 21
92.00583636395334
 31
0.0
  0
LINE
  5
128D
330
1F
100
AcDbEntity
  8
0
  6
Continuous
 62
     7
370
    15
100
AcDbLine
 10
106.4011872571436
 20
92.00583636395334
 30
0.0
 11
106.4011872571436
 21
100.0058367439329
 31
0.0
  0
LINE
  5
128E
330
1F
100
AcDbEntity
  8
0
  6
Continuous
 62
     7
370
    15
100
AcDbLine
 10
106.4811878663031
 20
91.00583620004057
 30
0.0
 11
106.4011872571436
 21
91.00583620004057
 31
0.0
  0
LINE
  5
128F
330
1F
100
AcDbEntity
  8
0
  6
Continuous
 62
     7
370
    15
100
AcDbLine
 10
106.4011872571436
 20
91.00583620004057
 30
0.0
 11
106.4011872571436
 21
92.00583636395334
 31
0.0
  0
LINE
  5
1290
330
1F
100
AcDbEntity
  8
0
  6
Continuous
 62
     7
370
    15
100
AcDbLine
 10
156.481186748716
 20
91.50583721331949
 30
0.0
 11
156.481186748716
 21
99.50583666197653
 31
0.0
  0
LINE
  5
1291
330
1F
100
AcDbEntity
  8
0
  6
Continuous
 62
     7
370
    15
100
AcDbLine
 10
152.4811870243875
 20
87.5058365576684
 30
0.0
 11
152.4811870243875
 21
103.5058373176276
 31
0.0
  0
LINE
  5
1292
330
1F
100
AcDbEntity
  8
0
  6
Continuous
 62
     7
370
    15
100
AcDbLine
 10
152.4811870243875
 20
87.5058365576684
 30
0.0
 11
110.4811885219542
 21
87.5058365576684
 31
0.0
  0
LINE
  5
1293
330
1F
100
AcDbEntity
  8
0
  6
Continuous
 62
     7
370
    15
100
AcDbLine
 10
110.4811885219542
 20
87.5058365576684
 30
0.0
 11
110.4811885219542
 21
104.0058364682614
 31
0.0
  0
LINE
  5
1294
330
1F
100
AcDbEntity
  8
0
  6
Continuous
 62
     7
370
    15
100
AcDbLine
 10
152.4811870243875
 20
103.5058373176276
 30
0.0
 11
114.481185452315
 21
103.5058373176276
 31
0.0
  0
LINE
  5
1295
330
1F
100
AcDbEntity
  8
0
  6
Continuous
 62
     7
370
    15
100
AcDbLine
 10
110.4811885219542
 20
104.0058364682614
 30
0.0
 11
114.481185452315
 21
104.0058364682614
 31
0.0
  0
LINE
  5
1296
330
1F
100
AcDbEntity
  8
0
  6
Continuous
 62
     7
370
    15
100
AcDbLine
 10
114.481185452315
 20
104.0058364682614
 30
0.0
 11
114.481185452315
 21
103.5058373176276
 31
0.0
  0
LINE
  5
1297
330
1F
100
AcDbEntity
  8
0
  6
Continuous
 62
     7
370
    15
100
AcDbLine
 10
110.4811885219542
 20
87.5058365576684
 30
0.0
 11
106.4811878663031
 21
87.5058365576684
 31
0.0
  0
LINE
  5
1298
330
1F
100
AcDbEntity
  8
0
  6
Continuous
 62
     7
370
    15
100
AcDbLine
 10
106.4811878663031
 20
87.5058365576684
 30
0.0
 11
106.4811878663031
 21
104.0058364682614
 31
0.0
  0
LINE
  5
1299
330
1F
100
AcDbEntity
  8
0
  6
Continuous
 62
     7
370
    15
100
AcDbLine
 10
106.4811878663031
 20
104.0058364682614
 30
0.0
 11
110.4811885219542
 21
104.0058364682614
 31
0.0
  0
LINE
  5
129A
330
1F
100
AcDbEntity
  8
0
  6
Continuous
 62
     7
370
    15
100
AcDbLine
 10
156.481186748716
 20
99.50583666197653
 30
0.0
 11
156.481186748716
 21
103.5058373176276
 31
0.0
  0
LINE
  5
129B
330
1F
100
AcDbEntity
  8
0
  6
Continuous
 62
     7
370
    15
100
AcDbLine
 10
156.481186748716
 20
99.50583666197653
 30
0.0
 11
156.481186748716
 21
91.50583721331949
 31
0.0
  0
LINE
  5
129C
330
1F
100
AcDbEntity
  8
0
  6
Continuous
 62
     7
370
    15
100
AcDbLine
 10
156.481186748716
 20
87.5058365576684
 30
0.0
 11
156.481186748716
 21
91.50583721331949
 31
0.0
  0
LINE
  5
129D
330
1F
100
AcDbEntity
  8
0
  6
Continuous
 62
     7
370
    15
100
AcDbLine
 10
156.481186748716
 20
87.5058365576684
 30
0.0
 11
152.4811870243875
 21
87.5058365576684
 31
0.0
  0
LINE
  5
129E
330
1F
100
AcDbEntity
  8
0
  6
Continuous
 62
     7
370
    15
100
AcDbLine
 10
156.481186748716
 20
103.5058373176276
 30
0.0
 11
152.4811870243875
 21
103.5058373176276
 31
0.0
  0
LINE
  5
129F
330
1F
100
AcDbEntity
  8
0
  6
Continuous
 62
     7
370
    15
100
AcDbLine
 10
148.481187300059
 20
104.0058364682615
 30
0.0
 11
148.481187300059
 21
103.5058373176277
 31
0.0
  0
LINE
  5
12A0
330
1F
100
AcDbEntity
  8
0
  6
Continuous
 62
     7
370
    15
100
AcDbLine
 10
148.481187300059
 20
104.0058364682615
 30
0.0
 11
156.481186748716
 21
104.0058364682615
 31
0.0
  0
LINE
  5
12A1
330
1F
100
AcDbEntity
  8
0
  6
Continuous
 62
     7
370
    15
100
AcDbLine
 10
156.481186748716
 20
104.0058364682615
 30
0.0
 11
156.481186748716
 21
103.5058373176277
 31
0.0
  0
LINE
  5
12A2
330
1F
100
AcDbEntity
  8
0
  6
Continuous
 62
     7
370
    15
100
AcDbLine
 10
102.3397640150515
 20
91.36441588036422
 30
0.0
 11
102.3397640150515
 21
99.64725799493198
 31
0.0
  0
LINE
  5
12A3
330
1F
100
AcDbEntity
  8
0
  6
Continuous
 62
     7
370
    15
100
AcDbLine
 10
102.6226066809622
 20
95.50583600632553
 30
0.0
 11
102.6226066809622
 21
91.36441588036422
 31
0.0
  0
LINE
  5
12A4
330
1F
100
AcDbEntity
  8
0
  6
Continuous
 62
     7
370
    15
100
AcDbLine
 10
102.6226066809622
 20
99.64725799493198
 30
0.0
 11
102.6226066809622
 21
95.50583600632553
 31
0.0
  0
DIMENSION
  5
12A5
330
1F
100
AcDbEntity
  8
0
100
AcDbDimension
  2
*D4
 10
175.4332029029705
 20
103.5058368681644
 30
0.0
 11
175.4332029029705
 21
95.59596069263537
 31
0.0
 70
   160
 71
     2
 42
16.0
  3
ISO-25
100
AcDbAlignedDimension
 13
152.4811870196226
 23
87.50583686816444
 33
0.0
 14
156.4811870196225
 24
103.5058368681644
 34
0.0
 50
90.0
100
AcDbRotatedDimension
  0
DIMENSION
  5
12A6
330
1F
100
AcDbEntity
  8
0
100
AcDbDimension
  2
*D5
 10
95.78118701962296
 20
117.7181240479241
 30
0.0
 11
125.4447414271457
 21
117.7181240479241
 31
0.0
 70
   160
 71
     2
 42
60.6999999999997
  3
ISO-25
100
AcDbAlignedDimension
 13
156.4811870196226
 23
101.5058368681644
 33
0.0
 14
95.78118701962296
 24
99.90583686816457
 34
0.0
100
AcDbRotatedDimension
  0
DIMENSION
  5
12A7
330
1F
100
AcDbEntity
  8
0
100
AcDbDimension
  2
*D6
 10
185.4536896333622
 20
104.0058368681645
 30
0.0
 11
185.4536896333621
 21
95.59596069263539
 31
0.0
 70
   160
 71
     2
 42
16.5
  3
ISO-25
100
AcDbAlignedDimension
 13
150.7811870196226
 23
87.50583686816458
 33
0.0
 14
156.4811870196226
 24
104.0058368681646
 34
0.0
 50
90.0
100
AcDbRotatedDimension
  0
CIRCLE
  5
12A8
330
1F
100
AcDbEntity
  8
0
  6
Continuous
 62
     7
370
    15
100
AcDbCircle
 10
196.3625340497268
 20
164.1568925306007
 30
0.0
 40
4.999999999999971
  0
CIRCLE
  5
12A9
330
1F
100
AcDbEntity
  8
0
  6
Continuous
 62
     7
370
    15
100
AcDbCircle
 10
196.3625340497268
 20
164.1568925306007
 30
0.0
 40
4.5
  0
CIRCLE
  5
12AA
330
1F
100
AcDbEntity
  8
0
  6
Continuous
 62
     7
370
    15
100
AcDbCircle
 10
196.3625340497268
 20
164.1568925306007
 30
0.0
 40
4.400000000000005
  0
CIRCLE
  5
12AB
330
1F
100
AcDbEntity
  8
0
  6
Continuous
 62
     7
370
    15
100
AcDbCircle
 10
196.3625340497268
 20
164.1568925306007
 30
0.0
 40
5.750000000000028
  0
LINE
  5
1336
330
1F
100
AcDbEntity
  8
0
  6
Continuous
 62
     7
370
    15
100
AcDbLine
 10
204.3625343602229
 20
194.1568922474786
 30
0.0
 11
204.3625343602229
 21
152.1568928137228
 31
0.0
  0
LINE
  5
1337
330
1F
100
AcDbEntity
  8
0
  6
Continuous
 62
     7
370
    15
100
AcDbLine
 10
204.3625343602229
 20
152.1568928137228
 30
0.0
 11
188.3625336002636
 21
152.1568928137228
 31
0.0
  0
LINE
  5
1338
330
1F
100
AcDbEntity
  8
0
  6
Continuous
 62
     7
370
    15
100
AcDbLine
 10
188.3625336002636
 20
190.1568934544727
 30
0.0
 11
188.3625336002636
 21
152.1568928137228
 31
0.0
  0
LINE
  5
1339
330
1F
100
AcDbEntity
  8
0
  6
Continuous
 62
     7
370
    15
100
AcDbLine
 10
187.8625344496298
 20
190.1568934544727
 30
0.0
 11
188.3625336002636
 21
190.1568934544727
 31
0.0
  0
LINE
  5
133A
330
1F
100
AcDbEntity
  8
0
  6
Continuous
 62
     7
370
    15
100
AcDbLine
 10
204.3625343602229
 20
194.1568922474786
 30
0.0
 11
187.8625344496298
 21
194.1568922474786
 31
0.0
  0
LINE
  5
133B
330
1F
100
AcDbEntity
  8
0
  6
Continuous
 62
     7
370
    15
100
AcDbLine
 10
187.8625344496298
 20
190.1568934544727
 30
0.0
 11
187.8625344496298
 21
194.1568922474786
 31
0.0
  0
LINE
  5
133C
330
1F
100
AcDbEntity
  8
0
  6
Continuous
 62
     7
370
    15
100
AcDbLine
 10
204.3625343602229
 20
198.1568929031297
 30
0.0
 11
204.3625343602229
 21
194.1568922474786
 31
0.0
  0
LINE
  5
133D
330
1F
100
AcDbEntity
  8
0
  6
Continuous
 62
     7
370
    15
100
AcDbLine
 10
204.3625343602229
 20
198.1568929031297
 30
0.0
 11
187.8625344496298
 21
198.1568929031297
 31
0.0
  0
LINE
  5
133E
330
1F
100
AcDbEntity
  8
0
  6
Continuous
 62
     7
370
    15
100
AcDbLine
 10
187.8625344496298
 20
194.1568922474786
 30
0.0
 11
187.8625344496298
 21
198.1568929031297
 31
0.0
  0
LINE
  5
133F
330
1F
100
AcDbEntity
  8
0
  6
Continuous
 62
     7
370
    15
100
AcDbLine
 10
204.3625343602229
 20
152.1568928137228
 30
0.0
 11
204.3625343602229
 21
148.1568921580717
 31
0.0
  0
LINE
  5
1340
330
1F
100
AcDbEntity
  8
0
  6
Continuous
 62
     7
370
    15
100
AcDbLine
 10
204.3625343602229
 20
148.1568921580717
 30
0.0
 11
188.3625336002636
 21
148.1568921580717
 31
0.0
  0
LINE
  5
1341
330
1F
100
AcDbEntity
  8
0
  6
Continuous
 62
     7
370
    15
100
AcDbLine
 10
188.3625336002636
 20
152.1568928137228
 30
0.0
 11
188.3625336002636
 21
148.1568921580717
 31
0.0
  0
LINE
  5
1342
330
1F
100
AcDbEntity
  8
0
  6
Continuous
 62
     7
370
    15
100
AcDbLine
 10
187.8625344496297
 20
148.1568921580717
 30
0.0
 11
187.8625344496297
 21
156.1568916067287
 31
0.0
  0
LINE
  5
1343
330
1F
100
AcDbEntity
  8
0
  6
Continuous
 62
     7
370
    15
100
AcDbLine
 10
187.8625344496297
 20
156.1568916067287
 30
0.0
 11
188.3625336002635
 21
156.1568916067287
 31
0.0
  0
LINE
  5
1344
330
1F
100
AcDbEntity
  8
0
  6
Continuous
 62
     7
370
    15
100
AcDbLine
 10
187.8625344496297
 20
148.1568921580717
 30
0.0
 11
188.3625336002635
 21
148.1568921580717
 31
0.0
  0
DIMENSION
  5
1345
330
1F
100
AcDbEntity
  8
0
100
AcDbDimension
  2
*D7
 10
215.6299198283775
 20
164.1568925306007
 30
0.0
 11
215.6299198283775
 21
155.9406132635697
 31
0.0
 70
   160
 71
     2
 42
15.99999999999997
  3
ISO-25
100
AcDbAlignedDimension
 13
204.3625340497268
 23
148.1568925306007
 33
0.0
 14
203.3025340497269
 24
164.1568925306007
 34
0.0
 50
90.0
100
AcDbRotatedDimension
  0
DIMENSION
  5
1346
330
1F
100
AcDbEntity
  8
0
100
AcDbDimension
  2
*D8
 10
187.8625340497266
 20
127.7458537320167
 30
0.0
 11
209.6958673830602
 21
127.7458537320167
 31
0.0
 70
   160
 71
     2
 42
8.500000000000227
  3
ISO-25
100
AcDbAlignedDimension
 13
196.3625340497268
 23
157.2168925306007
 33
0.0
 14
187.8625340497266
 24
148.1568925306007
 34
0.0
100
AcDbRotatedDimension
  0
DIMENSION
  5
1347
330
1F
100
AcDbEntity
  8
0
100
AcDbDimension
  2
*D9
 10
204.3625340497268
 20
209.5475415989997
 30
0.0
 11
195.5776698387553
 21
209.5475415989997
 31
0.0
 70
   160
 71
     2
 42
16.5
  3
ISO-25
100
AcDbAlignedDimension
 13
187.8625340497268
 23
198.1568925306007
 33
0.0
 14
204.3625340497268
 24
198.1568925306007
 34
0.0
100
AcDbRotatedDimension
  0
INSERT
  5
1348
330
1F
100
AcDbEntity
  8
FORMAT
100
AcDbBlockReference
  2
SW_CENTERMARKSYMBOL_0
 10
196.3625340497268
 20
164.1568925306007
 30
0.0
  0
LINE
  5
1349
330
1F
100
AcDbEntity
  8
0
  6
Continuous
 62
     7
370
    15
100
AcDbLine
 10
55.52204821507814
 20
194.1568922474786
 30
0.0
 11
63.52204766373517
 21
194.1568922474786
 31
0.0
  0
ARC
  5
134A
330
1F
100
AcDbEntity
  8
0
  6
Continuous
 62
     7
370
    15
100
AcDbCircle
 10
63.52204786992309
 20
164.1568925306007
 30
0.0
 40
2.000000000000007
100
AcDbArc
 50
270.0
 51
0.0
  0
LINE
  5
134B
330
1F
100
AcDbEntity
  8
0
  6
Continuous
 62
     7
370
    15
100
AcDbLine
 10
63.52204766373517
 20
162.1568925902054
 30
0.0
 11
55.52204821507814
 21
162.1568925902054
 31
0.0
  0
ARC
  5
134C
330
1F
100
AcDbEntity
  8
0
  6
Continuous
 62
     7
370
    15
100
AcDbCircle
 10
55.52204786992309
 20
164.1568925306007
 30
0.0
 40
2.0
100
AcDbArc
 50
179.9999999999996
 51
270.0
  0
LINE
  5
134D
330
1F
100
AcDbEntity
  8
0
  6
Continuous
 62
     7
370
    15
100
AcDbLine
 10
53.52204788725259
 20
164.1568929180309
 30
0.0
 11
53.52204788725259
 21
192.1568919196531
 31
0.0
  0
ARC
  5
134E
330
1F
100
AcDbEntity
  8
0
  6
Continuous
 62
     7
370
    15
100
AcDbCircle
 10
55.52204786992309
 20
192.1568925306007
 30
0.0
 40
2.000000000000003
100
AcDbArc
 50
90.0
 51
180.0000000000016
  0
LINE
  5
134F
330
1F
100
AcDbEntity
  8
0
  6
Continuous
 62
     7
370
    15
100
AcDbLine
 10
65.52204799156072
 20
192.1568919196531
 30
0.0
 11
65.52204799156072
 21
164.1568929180309
 31
0.0
  0
ARC
  5
1350
330
1F
100
AcDbEntity
  8
0
  6
Continuous
 62
     7
370
    15
100
AcDbCircle
 10
63.52204786992309
 20
192.1568925306007
 30
0.0
 40
2.000000000000007
100
AcDbArc
 50
0.0
 51
90.0
  0
ARC
  5
1351
330
1F
100
AcDbEntity
  8
0
  6
Continuous
 62
     7
370
    15
100
AcDbCircle
 10
55.52204786992309
 20
164.1568925306007
 30
0.0
 40
2.000000000000003
100
AcDbArc
 50
179.9999999999996
 51
270.0
  0
LINE
  5
1352
330
1F
100
AcDbEntity
  8
0
  6
Continuous
 62
     7
370
    15
100
AcDbLine
 10
55.52204821507814
 20
162.1568925902054
 30
0.0
 11
63.52204766373517
 21
162.1568925902054
 31
0.0
  0
ARC
  5
1353
330
1F
100
AcDbEntity
  8
0
  6
Continuous
 62
     7
370
    15
100
AcDbCircle
 10
63.52204786992309
 20
164.1568925306007
 30
0.0
 40
2.000000000000007
100
AcDbArc
 50
270.0
 51
0.0
  0
LINE
  5
1354
330
1F
100
AcDbEntity
  8
0
  6
Continuous
 62
     7
370
    15
100
AcDbLine
 10
65.52204799156072
 20
164.1568929180309
 30
0.0
 11
65.52204799156072
 21
192.1568919196531
 31
0.0
  0
ARC
  5
1355
330
1F
100
AcDbEntity
  8
0
  6
Continuous
 62
     7
370
    15
100
AcDbCircle
 10
63.52204786992309
 20
192.1568925306007
 30
0.0
 40
2.000000000000007
100
AcDbArc
 50
0.0
 51
90.0
  0
LINE
  5
1356
330
1F
100
AcDbEntity
  8
0
  6
Continuous
 62
     7
370
    15
100
AcDbLine
 10
63.52204766373517
 20
194.1568922474786
 30
0.0
 11
67.52204831938627
 21
194.1568922474786
 31
0.0
  0
LINE
  5
1357
330
1F
100
AcDbEntity
  8
0
  6
Continuous
 62
     7
370
    15
100
AcDbLine
 10
67.52204831938627
 20
156.1568916067287
 30
0.0
 11
67.52204831938627
 21
194.1568922474786
 31
0.0
  0
LINE
  5
1358
330
1F
100
AcDbEntity
  8
0
  6
Continuous
 62
     7
370
    15
100
AcDbLine
 10
68.02204747002008
 20
156.1568916067287
 30
0.0
 11
68.02204747002008
 21
152.1568928137228
 31
0.0
  0
LINE
  5
1359
330
1F
100
AcDbEntity
  8
0
  6
Continuous
 62
     7
370
    15
100
AcDbLine
 10
51.52204755942705
 20
152.1568928137228
 30
0.0
 11
68.02204747002008
 21
152.1568928137228
 31
0.0
  0
LINE
  5
135A
330
1F
100
AcDbEntity
  8
0
  6
Continuous
 62
     7
370
    15
100
AcDbLine
 10
51.52204755942705
 20
152.1568928137228
 30
0.0
 11
51.52204755942705
 21
194.1568922474786
 31
0.0
  0
LINE
  5
135B
330
1F
100
AcDbEntity
  8
0
  6
Continuous
 62
     7
370
    15
100
AcDbLine
 10
51.52204755942705
 20
194.1568922474786
 30
0.0
 11
55.52204821507814
 21
194.1568922474786
 31
0.0
  0
ARC
  5
135C
330
1F
100
AcDbEntity
  8
0
  6
Continuous
 62
     7
370
    15
100
AcDbCircle
 10
55.52204786992309
 20
192.1568925306007
 30
0.0
 40
2.000000000000003
100
AcDbArc
 50
90.0
 51
179.9999999999996
  0
LINE
  5
135D
330
1F
100
AcDbEntity
  8
0
  6
Continuous
 62
     7
370
    15
100
AcDbLine
 10
53.52204788725259
 20
192.1568919196531
 30
0.0
 11
53.52204788725259
 21
164.1568929180309
 31
0.0
  0
LINE
  5
135E
330
1F
100
AcDbEntity
  8
0
  6
Continuous
 62
     7
370
    15
100
AcDbLine
 10
68.02204747002008
 20
156.1568916067287
 30
0.0
 11
67.52204831938627
 21
156.1568916067287
 31
0.0
  0
LINE
  5
135F
330
1F
100
AcDbEntity
  8
0
  6
Continuous
 62
     7
370
    15
100
AcDbLine
 10
51.52204755942705
 20
148.1568921580717
 30
0.0
 11
51.52204755942705
 21
152.1568928137228
 31
0.0
  0
LINE
  5
1360
330
1F
100
AcDbEntity
  8
0
  6
Continuous
 62
     7
370
    15
100
AcDbLine
 10
68.02204747002008
 20
152.1568928137228
 30
0.0
 11
68.02204747002008
 21
148.1568921580717
 31
0.0
  0
LINE
  5
1361
330
1F
100
AcDbEntity
  8
0
  6
Continuous
 62
     7
370
    15
100
AcDbLine
 10
51.52204755942705
 20
148.1568921580717
 30
0.0
 11
68.02204747002008
 21
148.1568921580717
 31
0.0
  0
LINE
  5
1362
330
1F
100
AcDbEntity
  8
0
  6
Continuous
 62
     7
370
    15
100
AcDbLine
 10
63.52204766373517
 20
194.1568922474786
 30
0.0
 11
55.52204821507814
 21
194.1568922474786
 31
0.0
  0
LINE
  5
1363
330
1F
100
AcDbEntity
  8
0
  6
Continuous
 62
     7
370
    15
100
AcDbLine
 10
51.52204755942705
 20
194.1568922474786
 30
0.0
 11
51.52204755942705
 21
198.1568929031297
 31
0.0
  0
LINE
  5
1364
330
1F
100
AcDbEntity
  8
0
  6
Continuous
 62
     7
370
    15
100
AcDbLine
 10
51.52204755942705
 20
198.1568929031297
 30
0.0
 11
67.52204831938627
 21
198.1568929031297
 31
0.0
  0
LINE
  5
1365
330
1F
100
AcDbEntity
  8
0
  6
Continuous
 62
     7
370
    15
100
AcDbLine
 10
67.52204831938627
 20
194.1568922474786
 30
0.0
 11
67.52204831938627
 21
198.1568929031297
 31
0.0
  0
LINE
  5
1366
330
1F
100
AcDbEntity
  8
0
  6
Continuous
 62
     7
370
    15
100
AcDbLine
 10
68.02204747002019
 20
190.1568934544727
 30
0.0
 11
67.52204831938638
 21
190.1568934544727
 31
0.0
  0
LINE
  5
1367
330
1F
100
AcDbEntity
  8
0
  6
Continuous
 62
     7
370
    15
100
AcDbLine
 10
68.02204747002019
 20
198.1568929031297
 30
0.0
 11
68.02204747002019
 21
190.1568934544727
 31
0.0
  0
LINE
  5
1368
330
1F
100
AcDbEntity
  8
0
  6
Continuous
 62
     7
370
    15
100
AcDbLine
 10
68.02204747002019
 20
198.1568929031297
 30
0.0
 11
67.52204831938638
 21
198.1568929031297
 31
0.0
  0
CIRCLE
  5
1369
330
1F
100
AcDbEntity
  8
FORMAT
100
AcDbCircle
 10
58.7720478699232
 20
189.1568925306007
 30
0.0
 40
2.500000000000011
  0
DIMENSION
  5
136A
330
1F
100
AcDbEntity
  8
0
100
AcDbDimension
  2
*D10
 10
38.82979473775927
 20
198.1568925306007
 30
0.0
 11
38.82979473775924
 21
193.6568925306007
 31
0.0
 70
   160
 71
     2
 42
9.0
  3
ISO-25
100
AcDbAlignedDimension
 13
58.7720478699232
 23
189.1568925306007
 33
0.0
 14
51.52204786992308
 24
198.1568925306007
 34
0.0
 50
90.0
100
AcDbRotatedDimension
  0
INSERT
  5
136B
330
1F
100
AcDbEntity
  8
FORMAT
100
AcDbBlockReference
  2
SW_CENTERMARKSYMBOL_1
 10
58.7720478699232
 20
189.1568925306007
 30
0.0
  0
SPLINE
  5
136C
330
1F
100
AcDbEntity
  8
0
  6
Continuous
 62
     7
370
    15
100
AcDbSpline
210
0.0
220
0.0
230
1.0
 70
    24
 71
     1
 72
     4
 73
     2
 74
     0
 42
0.0000000001
 43
0.0000000001
 40
0.0
 40
0.0
 40
1.0
 40
1.0
 10
296.8199866840361
 20
189.1644513551048
 30
0.0
 10
294.2036947209422
 20
190.6748045566271
 30
0.0
  0
SPLINE
  5
136D
330
1F
100
AcDbEntity
  8
0
  6
Continuous
 62
     7
370
    15
100
AcDbSpline
210
0.0
220
0.0
230
1.0
 70
     8
 71
     3
 72
    30
 73
    26
 74
     0
 42
0.0000000001
 43
0.0000000001
 40
0.0
 40
0.0
 40
0.0
 40
0.0
 40
0.0059859222228878
 40
0.0508419341588681
 40
0.0948596967368445
 40
0.1388151942177651
 40
0.1835548359046124
 40
0.2295602836476203
 40
0.2767112039465368
 40
0.3245269355387761
 40
0.3725319217251473
 40
0.4204588873113741
 40
0.4682686229152571
 40
0.5159892358761783
 40
0.5636750300827034
 40
0.6113888660025669
 40
0.659177474608274
 40
0.707110232105456
 40
0.755252544184747
 40
0.8036463746382624
 40
0.8522606872034893
 40
0.9007818086218946
 40
0.9486135944594956
 40
0.9950999051828636
 40
1.0
 40
1.0
 40
1.0
 40
1.0
 10
293.846573607525
 20
190.8181309431233
 30
0.0
 10
293.8322656671257
 20
190.8340991594682
 30
0.0
 10
293.7107399712285
 20
190.9697265488358
 30
0.0
 10
293.4157773592134
 20
191.140739010176
 30
0.0
 10
292.9777326189831
 20
191.3127305582239
 30
0.0
 10
292.4994990866785
 20
191.3755882171143
 30
0.0
 10
291.996857991591
 20
191.3420160187295
 30
0.0
 10
291.4724190636176
 20
191.2094288390733
 30
0.0
 10
290.9349372655157
 20
190.9788015414912
 30
0.0
 10
290.3962207687299
 20
190.6536148320676
 30
0.0
 10
289.8699211612753
 20
190.2419828656264
 30
0.0
 10
289.3685301449043
 20
189.7546966581493
 30
0.0
 10
288.9027384293373
 20
189.2036111401714
 30
0.0
 10
288.4818351226263
 20
188.6009250569994
 30
0.0
 10
288.1142172319758
 20
187.9593964644532
 30
0.0
 10
287.8074712561915
 20
187.2923072299756
 30
0.0
 10
287.5682683723004
 20
186.6131667066251
 30
0.0
 10
287.4022825444427
 20
185.9354110363068
 30
0.0
 10
287.3143680047365
 20
185.2722070863483
 30
0.0
 10
287.3085118315767
 20
184.6361567350694
 30
0.0
 10
287.388886999336
 20
184.041796829729
 30
0.0
 10
287.5549200337701
 20
183.5007061582482
 30
0.0
 10
287.8138735441113
 20
183.0424870239852
 30
0.0
 10
288.0351734072765
 20
182.7530710418537
 30
0.0
 10
288.1846175799808
 20
182.6498930530607
 30
0.0
 10
288.1988682481958
 20
182.6400542265693
 30
0.0
  0
SPLINE
  5
136E
330
1F
100
AcDbEntity
  8
0
  6
Continuous
 62
     7
370
    15
100
AcDbSpline
210
0.0
220
0.0
230
1.0
 70
    24
 71
     1
 72
     4
 73
     2
 74
     0
 42
0.0000000001
 43
0.0000000001
 40
0.0
 40
0.0
 40
1.0
 40
1.0
 10
290.3598761242405
 20
190.7942846747382
 30
0.0
 10
290.2891761029525
 20
190.7534586718994
 30
0.0
  0
SPLINE
  5
136F
330
1F
100
AcDbEntity
  8
0
  6
Continuous
 62
     7
370
    15
100
AcDbSpline
210
0.0
220
0.0
230
1.0
 70
    24
 71
     1
 72
     4
 73
     2
 74
     0
 42
0.0000000001
 43
0.0000000001
 40
0.0
 40
0.0
 40
1.0
 40
1.0
 10
287.1784120447726
 20
185.3648732530853
 30
0.0
 10
287.1784127033171
 20
185.2832314400799
 30
0.0
  0
SPLINE
  5
1370
330
1F
100
AcDbEntity
  8
0
  6
Continuous
 62
     7
370
    15
100
AcDbSpline
210
0.0
220
0.0
230
1.0
 70
    24
 71
     1
 72
     4
 73
     2
 74
     0
 42
0.0000000001
 43
0.0000000001
 40
0.0
 40
0.0
 40
1.0
 40
1.0
 10
326.9747729610626
 20
197.5564146987295
 30
0.0
 10
326.8586807839283
 20
197.1155004610346
 30
0.0
  0
SPLINE
  5
1371
330
1F
100
AcDbEntity
  8
0
  6
Continuous
 62
     7
370
    15
100
AcDbSpline
210
0.0
220
0.0
230
1.0
 70
    24
 71
     1
 72
     4
 73
     2
 74
     0
 42
0.0000000001
 43
0.0000000001
 40
0.0
 40
0.0
 40
1.0
 40
1.0
 10
326.1284194619372
 20
197.1155012213739
 30
0.0
 10
326.012325967714
 20
197.5564131780508
 30
0.0
  0
SPLINE
  5
1372
330
1F
100
AcDbEntity
  8
0
  6
Continuous
 62
     7
370
    15
100
AcDbSpline
210
0.0
220
0.0
230
1.0
 70
    24
 71
     1
 72
     4
 73
     2
 74
     0
 42
0.0000000001
 43
0.0000000001
 40
0.0
 40
0.0
 40
1.0
 40
1.0
 10
317.7823859330657
 20
197.5564139383902
 30
0.0
 10
317.6662911217534
 20
197.1155012213739
 30
0.0
  0
SPLINE
  5
1373
330
1F
100
AcDbEntity
  8
0
  6
Continuous
 62
     7
370
    15
100
AcDbSpline
210
0.0
220
0.0
230
1.0
 70
    24
 71
     1
 72
     4
 73
     2
 74
     0
 42
0.0000000001
 43
0.0000000001
 40
0.0
 40
0.0
 40
1.0
 40
1.0
 10
316.9360317753958
 20
197.115500080865
 30
0.0
 10
316.8199369640836
 20
197.5564143185598
 30
0.0
  0
SPLINE
  5
1374
330
1F
100
AcDbEntity
  8
0
  6
Continuous
 62
     7
370
    15
100
AcDbSpline
210
0.0
220
0.0
230
1.0
 70
    24
 71
     1
 72
     4
 73
     2
 74
     0
 42
0.0000000001
 43
0.0000000001
 40
0.0
 40
0.0
 40
1.0
 40
1.0
 10
326.1284201204817
 20
167.3166044372915
 30
0.0
 10
326.0123253091695
 20
167.7575179146471
 30
0.0
  0
SPLINE
  5
1375
330
1F
100
AcDbEntity
  8
0
  6
Continuous
 62
     7
370
    15
100
AcDbSpline
210
0.0
220
0.0
230
1.0
 70
    24
 71
     1
 72
     4
 73
     2
 74
     0
 42
0.0000000001
 43
0.0000000001
 40
0.0
 40
0.0
 40
1.0
 40
1.0
 10
326.974773619607
 20
167.7575179146471
 30
0.0
 10
326.8586801253838
 20
167.3166044372915
 30
0.0
  0
SPLINE
  5
1376
330
1F
100
AcDbEntity
  8
0
  6
Continuous
 62
     7
370
    15
100
AcDbSpline
210
0.0
220
0.0
230
1.0
 70
    24
 71
     1
 72
     4
 73
     2
 74
     0
 42
0.0000000001
 43
0.0000000001
 40
0.0
 40
0.0
 40
1.0
 40
1.0
 10
317.7823859330656
 20
167.7575182948167
 30
0.0
 10
317.6662924388423
 20
167.3166048174612
 30
0.0
  0
SPLINE
  5
1377
330
1F
100
AcDbEntity
  8
0
  6
Continuous
 62
     7
370
    15
100
AcDbSpline
210
0.0
220
0.0
230
1.0
 70
    24
 71
     1
 72
     4
 73
     2
 74
     0
 42
0.0000000001
 43
0.0000000001
 40
0.0
 40
0.0
 40
1.0
 40
1.0
 10
316.9360311168513
 20
167.3166040571219
 30
0.0
 10
316.819937622628
 20
167.7575175344775
 30
0.0
  0
SPLINE
  5
1378
330
1F
100
AcDbEntity
  8
0
  6
Continuous
 62
     7
370
    15
100
AcDbSpline
210
0.0
220
0.0
230
1.0
 70
    24
 71
     1
 72
     4
 73
     2
 74
     0
 42
0.0000000001
 43
0.0000000001
 40
0.0
 40
0.0
 40
1.0
 40
1.0
 10
288.1988702238293
 20
182.7942491078446
 30
0.0
 10
288.1988702238293
 20
169.7295954971349
 30
0.0
  0
SPLINE
  5
1379
330
1F
100
AcDbEntity
  8
0
  6
Continuous
 62
     7
370
    15
100
AcDbSpline
210
0.0
220
0.0
230
1.0
 70
    24
 71
     1
 72
     4
 73
     2
 74
     0
 42
0.0000000001
 43
0.0000000001
 40
0.0
 40
0.0
 40
1.0
 40
1.0
 10
355.5958397013168
 20
169.7295943566258
 30
0.0
 10
355.5958397013168
 20
182.7942479673356
 30
0.0
  0
ARC
  5
137A
330
1F
100
AcDbEntity
  8
0
  6
Continuous
 62
     7
370
    15
100
AcDbCircle
 10
299.3717269780054
 20
183.4334070924546
 30
0.0
 40
5.332256777762594
100
AcDbArc
 50
105.1297447669707
 51
134.8648787003263
  0
ARC
  5
137B
330
1F
100
AcDbEntity
  8
0
  6
Continuous
 62
     7
370
    15
100
AcDbCircle
 10
297.3357251948719
 20
185.551184606606
 30
0.0
 40
3.010548720142519
100
AcDbArc
 50
81.53915047951603
 51
122.1470731385226
  0
LWPOLYLINE
  5
137C
330
1F
100
AcDbEntity
  8
0
  6
Continuous
 62
     7
370
    15
100
AcDbPolyline
 90
       13
 70
   128
 43
0.0
 10
297.148186169024
 20
188.91706137242
 10
296.8201898450169
 20
189.1643344148721
 10
296.3983245868419
 20
189.3368658049847
 10
295.9252887740354
 20
189.3985270773996
 10
295.4127300833101
 20
189.3477988750164
 10
294.8732695201613
 20
189.1859321157175
 10
294.3201902565875
 20
188.9169113292298
 10
293.7671103344692
 20
188.5473600102069
 10
293.2276497713204
 20
188.0863788609848
 10
292.7150914098673
 20
187.545319585696
 10
292.2420555970608
 20
186.9375027890619
 10
291.8201900096136
 20
186.277895949464
 10
291.4921940148787
 20
185.6519266021797
  0
LWPOLYLINE
  5
137D
330
1F
100
AcDbEntity
  8
0
  6
Continuous
 62
     7
370
    15
100
AcDbPolyline
 90
       18
 70
   128
 43
0.0
 10
294.2036947209422
 20
190.6748045566271
 10
293.7820326237478
 20
190.8472190065071
 10
293.3089968109413
 20
190.9088802789219
 10
292.7964381202159
 20
190.8581520765388
 10
292.2569775570672
 20
190.6962853172398
 10
291.7038982934935
 20
190.4272645307522
 10
291.1508183713752
 20
190.0577132117292
 10
290.6113578082265
 20
189.5967320625072
 10
290.0987994467733
 20
189.0556727872183
 10
289.6257636339668
 20
188.4478559905843
 10
289.2038980465195
 20
187.7882491509864
 10
288.843591224045
 20
187.0930944007601
 10
288.5537144196102
 20
186.3795070260121
 10
288.3414055971372
 20
185.665060274149
 10
288.2118922829302
 20
184.9673439217925
 10
288.1683638080416
 20
184.3035407089358
 10
288.2118922829302
 20
183.6899928825113
 10
288.2944046170579
 20
183.2958999617995
  0
ARC
  5
137E
330
1F
100
AcDbEntity
  8
0
  6
Continuous
 62
     7
370
    15
100
AcDbCircle
 10
294.9061457649254
 20
184.4959421372373
 30
0.0
 40
6.733154405808891
100
AcDbArc
 50
120.1735908676709
 51
179.8317884514212
  0
ARC
  5
137F
330
1F
100
AcDbEntity
  8
0
  6
Continuous
 62
     7
370
    15
100
AcDbCircle
 10
290.2327661014507
 20
185.2064849503229
 30
0.0
 40
3.055317447398899
100
AcDbArc
 50
178.5606364706506
 51
200.9822897017223
  0
ARC
  5
1380
330
1F
100
AcDbEntity
  8
0
  6
Continuous
 62
     7
370
    15
100
AcDbCircle
 10
293.5547113292102
 20
185.2043519984377
 30
0.0
 40
6.37678650519846
100
AcDbArc
 50
110.4712111428037
 51
179.2912457778658
  0
ARC
  5
1381
330
1F
100
AcDbEntity
  8
0
  6
Continuous
 62
     7
370
    15
100
AcDbCircle
 10
293.8548171377171
 20
185.102862359597
 30
0.0
 40
6.68154433296694
100
AcDbArc
 50
122.2527578753203
 51
177.7526200869016
  0
LWPOLYLINE
  5
1382
330
1F
100
AcDbEntity
  8
0
  6
Continuous
 62
     7
370
    15
100
AcDbPolyline
 90
        8
 70
   128
 43
0.0
 10
325.0793356702076
 20
198.3467972903134
 10
324.7720653882279
 20
198.1181153600321
 10
324.5729636758624
 20
197.8525045100637
 10
324.4945362933178
 20
197.5666549484843
 10
324.5417170560477
 20
197.2785243689911
 10
324.7115359283212
 20
197.0062217728027
 10
324.993328440376
 20
196.7668540339339
 10
325.0117571498873
 20
196.7549532031377
  0
LWPOLYLINE
  5
1383
330
1F
100
AcDbEntity
  8
0
  6
Continuous
 62
     7
370
    15
100
AcDbPolyline
 90
       14
 70
   128
 43
0.0
 10
327.9753430959782
 20
196.7549524427984
 10
328.0738600372834
 20
196.8227404935035
 10
328.3290578879279
 20
197.0718512202219
 10
328.4689261559784
 20
197.3497727238717
 10
328.4846745893422
 20
197.6390430519826
 10
328.3753114199906
 20
197.9214862934771
 10
328.1477118525867
 20
198.179356128985
 10
327.8161742054879
 20
198.3964482072457
 10
327.4015308756597
 20
198.5591228014733
 10
326.9298378351049
 20
198.6571571497171
 10
326.4307269525048
 20
198.6843940242879
 10
325.9355686540416
 20
198.6391196203931
 10
325.4754659968273
 20
198.52417988805
 10
325.0793356702076
 20
198.3467972903134
  0
ARC
  5
1384
330
1F
100
AcDbEntity
  8
0
  6
Continuous
 62
     7
370
    15
100
AcDbCircle
 10
325.8813874629625
 20
197.5303889144355
 30
0.0
 40
0.130983608981862
100
AcDbArc
 50
290.7827013024647
 51
69.21668246974935
  0
LINE
  5
1385
330
1F
100
AcDbEntity
  8
0
  6
Continuous
 62
     7
370
    15
100
AcDbLine
 10
325.9278636832982
 20
197.4079280359264
 30
0.0
 11
325.6803760717533
 21
197.2650564788881
 31
0.0
  0
LINE
  5
1386
330
1F
100
AcDbEntity
  8
0
  6
Continuous
 62
     7
370
    15
100
AcDbLine
 10
325.6803760717533
 20
197.2650564788881
 30
0.0
 11
326.0339301788429
 21
197.0609540373078
 31
0.0
  0
LINE
  5
1387
330
1F
100
AcDbEntity
  8
0
  6
Continuous
 62
     7
370
    15
100
AcDbLine
 10
326.0339301788429
 20
197.0609540373078
 30
0.0
 11
326.2814177903879
 21
197.2038255943461
 31
0.0
  0
ARC
  5
1388
330
1F
100
AcDbEntity
  8
0
  6
Continuous
 62
     7
370
    15
100
AcDbCircle
 10
326.4935493892074
 20
196.7944109166236
 30
0.0
 40
0.4611075726469153
100
AcDbArc
 50
62.60959222416881
 51
117.390202412364
  0
LINE
  5
1389
330
1F
100
AcDbEntity
  8
0
  6
Continuous
 62
     7
370
    15
100
AcDbLine
 10
326.7056824554777
 20
197.2038248340068
 30
0.0
 11
326.9531687499338
 21
197.0609540373078
 31
0.0
  0
LINE
  5
138A
330
1F
100
AcDbEntity
  8
0
  6
Continuous
 62
     7
370
    15
100
AcDbLine
 10
326.9531687499338
 20
197.0609540373078
 30
0.0
 11
327.3067215399344
 21
197.2650557185488
 31
0.0
  0
LINE
  5
138B
330
1F
100
AcDbEntity
  8
0
  6
Continuous
 62
     7
370
    15
100
AcDbLine
 10
327.3067215399344
 20
197.2650557185488
 30
0.0
 11
327.0592352454784
 21
197.4079265152478
 31
0.0
  0
ARC
  5
138C
330
1F
100
AcDbEntity
  8
0
  6
Continuous
 62
     7
370
    15
100
AcDbCircle
 10
327.1057131224081
 20
197.5303882843317
 30
0.0
 40
0.1309850294157809
100
AcDbArc
 50
110.7832405594658
 51
249.2167594405378
  0
LINE
  5
138D
330
1F
100
AcDbEntity
  8
0
  6
Continuous
 62
     7
370
    15
100
AcDbLine
 10
327.0592352454784
 20
197.6528500534156
 30
0.0
 11
327.3067215399344
 21
197.7957208501146
 31
0.0
  0
LINE
  5
138E
330
1F
100
AcDbEntity
  8
0
  6
Continuous
 62
     7
370
    15
100
AcDbLine
 10
327.3067215399344
 20
197.7957208501146
 30
0.0
 11
326.9531674328447
 21
197.9998232916948
 31
0.0
  0
LINE
  5
138F
330
1F
100
AcDbEntity
  8
0
  6
Continuous
 62
     7
370
    15
100
AcDbLine
 10
326.9531674328447
 20
197.9998232916948
 30
0.0
 11
326.7056811383887
 21
197.8569524949958
 31
0.0
  0
ARC
  5
1390
330
1F
100
AcDbEntity
  8
0
  6
Continuous
 62
     7
370
    15
100
AcDbCircle
 10
326.4935479969587
 20
198.2663588164662
 30
0.0
 40
0.4611008628845596
100
AcDbArc
 50
242.6095604372014
 51
297.3908502910357
  0
LINE
  5
1391
330
1F
100
AcDbEntity
  8
0
  6
Continuous
 62
     7
370
    15
100
AcDbLine
 10
326.2814177903879
 20
197.8569509743172
 30
0.0
 11
326.0339288617539
 21
197.9998232916948
 31
0.0
  0
LINE
  5
1392
330
1F
100
AcDbEntity
  8
0
  6
Continuous
 62
     7
370
    15
100
AcDbLine
 10
326.0339288617539
 20
197.9998232916948
 30
0.0
 11
325.6803760717533
 21
197.7957216104539
 31
0.0
  0
LINE
  5
1393
330
1F
100
AcDbEntity
  8
0
  6
Continuous
 62
     7
370
    15
100
AcDbLine
 10
325.6803760717533
 20
197.7957216104539
 30
0.0
 11
325.9278650003872
 21
197.6528492930763
 31
0.0
  0
LINE
  5
1394
330
1F
100
AcDbEntity
  8
0
  6
Continuous
 62
     7
370
    15
100
AcDbLine
 10
326.9531700670227
 20
197.4743599248391
 30
0.0
 11
326.9531674328447
 21
197.9998232916948
 31
0.0
  0
LINE
  5
1395
330
1F
100
AcDbEntity
  8
0
  6
Continuous
 62
     7
370
    15
100
AcDbLine
 10
326.033931495932
 20
197.4743599248391
 30
0.0
 11
326.0339288617539
 21
197.9998232916948
 31
0.0
  0
LWPOLYLINE
  5
1396
330
1F
100
AcDbEntity
  8
0
  6
Continuous
 62
     7
370
    15
100
AcDbPolyline
 90
        8
 70
   128
 43
0.0
 10
315.8869479836661
 20
198.3467961498045
 10
315.579678360231
 20
198.1181145996927
 10
315.380573355143
 20
197.8525048902333
 10
315.3021492653209
 20
197.5666541881451
 10
315.3493280524173
 20
197.2785255095001
 10
315.5191495588688
 20
197.006221392633
 10
315.8009381196565
 20
196.7668544141036
 10
315.8193701218904
 20
196.7549524427984
  0
LWPOLYLINE
  5
1397
330
1F
100
AcDbEntity
  8
0
  6
Continuous
 62
     7
370
    15
100
AcDbPolyline
 90
       14
 70
   128
 43
0.0
 10
318.7829540923478
 20
196.7549535833073
 10
318.8814703751085
 20
196.8227412538428
 10
319.136670859931
 20
197.0718504598826
 10
319.2765391279814
 20
197.3497719635324
 10
319.2922849271673
 20
197.6390438123219
 10
319.1829217578156
 20
197.9214870538164
 10
318.9553221904117
 20
198.1793568893243
 10
318.6237845433129
 20
198.396448967585
 10
318.2091438476628
 20
198.559122041134
 10
317.7374481729299
 20
198.6571579100564
 10
317.2383412415969
 20
198.6843940242879
 10
316.7431789918667
 20
198.6391203807324
 10
316.283079627375
 20
198.5241795078803
 10
315.8869479836661
 20
198.3467961498045
  0
ARC
  5
1398
330
1F
100
AcDbEntity
  8
0
  6
Continuous
 62
     7
370
    15
100
AcDbCircle
 10
316.6889975710524
 20
197.5303883494471
 30
0.0
 40
0.130984929587419
100
AcDbArc
 50
290.7835138862735
 51
69.21679422521875
  0
LINE
  5
1399
330
1F
100
AcDbEntity
  8
0
  6
Continuous
 62
     7
370
    15
100
AcDbLine
 10
316.7354759967568
 20
197.4079268954174
 30
0.0
 11
316.4879890437563
 21
197.2650557185488
 31
0.0
  0
LINE
  5
139A
330
1F
100
AcDbEntity
  8
0
  6
Continuous
 62
     7
370
    15
100
AcDbLine
 10
316.4879890437563
 20
197.2650557185488
 30
0.0
 11
316.841543150846
 21
197.0609532769685
 31
0.0
  0
LINE
  5
139B
330
1F
100
AcDbEntity
  8
0
  6
Continuous
 62
     7
370
    15
100
AcDbLine
 10
316.841543150846
 20
197.0609532769685
 30
0.0
 11
317.0890301038464
 21
197.2038244538372
 31
0.0
  0
ARC
  5
139C
330
1F
100
AcDbEntity
  8
0
  6
Continuous
 62
     7
370
    15
100
AcDbCircle
 10
317.301162549171
 20
196.7944095858059
 30
0.0
 40
0.4611081310543603
100
AcDbArc
 50
62.61002312091658
 51
117.390284925725
  0
LINE
  5
139D
330
1F
100
AcDbEntity
  8
0
  6
Continuous
 62
     7
370
    15
100
AcDbLine
 10
317.5132927933028
 20
197.2038255943461
 30
0.0
 11
317.7607817219367
 21
197.0609532769685
 31
0.0
  0
LINE
  5
139E
330
1F
100
AcDbEntity
  8
0
  6
Continuous
 62
     7
370
    15
100
AcDbLine
 10
317.7607817219367
 20
197.0609532769685
 30
0.0
 11
318.1143351704819
 21
197.2650553383791
 31
0.0
  0
LINE
  5
139F
330
1F
100
AcDbEntity
  8
0
  6
Continuous
 62
     7
370
    15
100
AcDbLine
 10
318.1143351704819
 20
197.2650553383791
 30
0.0
 11
317.866846241848
 21
197.4079276557567
 31
0.0
  0
ARC
  5
13A0
330
1F
100
AcDbEntity
  8
0
  6
Continuous
 62
     7
370
    15
100
AcDbCircle
 10
317.9133255155747
 20
197.5303880343881
 30
0.0
 40
0.1309842250834926
100
AcDbArc
 50
110.7834113843629
 51
249.2159723878507
  0
LINE
  5
13A1
330
1F
100
AcDbEntity
  8
0
  6
Continuous
 62
     7
370
    15
100
AcDbLine
 10
317.866847558937
 20
197.6528489129066
 30
0.0
 11
318.1143358290265
 21
197.7957208501146
 31
0.0
  0
LINE
  5
13A2
330
1F
100
AcDbEntity
  8
0
  6
Continuous
 62
     7
370
    15
100
AcDbLine
 10
318.1143358290265
 20
197.7957208501146
 30
0.0
 11
317.7607817219367
 21
197.9998232916948
 31
0.0
  0
LINE
  5
13A3
330
1F
100
AcDbEntity
  8
0
  6
Continuous
 62
     7
370
    15
100
AcDbLine
 10
317.7607817219367
 20
197.9998232916948
 30
0.0
 11
317.5132934518473
 21
197.8569513544869
 31
0.0
  0
ARC
  5
13A4
330
1F
100
AcDbEntity
  8
0
  6
Continuous
 62
     7
370
    15
100
AcDbCircle
 10
317.3011618530243
 20
198.2663640381352
 30
0.0
 40
0.4611058021228783
100
AcDbArc
 50
242.609478233854
 51
297.3903164026759
  0
LINE
  5
13A5
330
1F
100
AcDbEntity
  8
0
  6
Continuous
 62
     7
370
    15
100
AcDbLine
 10
317.0890287867575
 20
197.8569521148262
 30
0.0
 11
316.8415424923015
 21
197.9998229115252
 31
0.0
  0
LINE
  5
13A6
330
1F
100
AcDbEntity
  8
0
  6
Continuous
 62
     7
370
    15
100
AcDbLine
 10
316.8415424923015
 20
197.9998229115252
 30
0.0
 11
316.4879890437563
 21
197.7957208501146
 31
0.0
  0
LINE
  5
13A7
330
1F
100
AcDbEntity
  8
0
  6
Continuous
 62
     7
370
    15
100
AcDbLine
 10
316.4879890437563
 20
197.7957208501146
 30
0.0
 11
316.7354753382123
 21
197.6528500534156
 31
0.0
  0
LINE
  5
13A8
330
1F
100
AcDbEntity
  8
0
  6
Continuous
 62
     7
370
    15
100
AcDbLine
 10
317.7607804048478
 20
197.4743606851785
 30
0.0
 11
317.7607817219367
 21
197.9998232916948
 31
0.0
  0
LINE
  5
13A9
330
1F
100
AcDbEntity
  8
0
  6
Continuous
 62
     7
370
    15
100
AcDbLine
 10
316.841541833757
 20
197.4743606851785
 30
0.0
 11
316.8415424923015
 21
197.9998229115252
 31
0.0
  0
LWPOLYLINE
  5
13AA
330
1F
100
AcDbEntity
  8
0
  6
Continuous
 62
     7
370
    15
100
AcDbPolyline
 90
        8
 70
   128
 43
0.0
 10
325.079336328752
 20
168.547900506231
 10
324.7720653882278
 20
168.3192189561193
 10
324.5729623587733
 20
168.0536081061509
 10
324.4945362933176
 20
167.7677577842323
 10
324.541716397503
 20
167.4796291055874
 10
324.7115365868656
 20
167.2073257490596
 10
324.9933271232869
 20
166.9679576300211
 10
325.0117578084318
 20
166.9560571793946
  0
LWPOLYLINE
  5
13AB
330
1F
100
AcDbEntity
  8
0
  6
Continuous
 62
     7
370
    15
100
AcDbPolyline
 90
       14
 70
   128
 43
0.0
 10
327.9753424374336
 20
166.9560571793946
 10
328.0738600372834
 20
167.0238448499301
 10
328.3290592050168
 20
167.2729548163092
 10
328.4689268145228
 20
167.5508767001286
 10
328.4846739307976
 20
167.8401470282395
 10
328.3753114199905
 20
168.1225906499037
 10
328.1477105354976
 20
168.3804597250722
 10
327.8161735469432
 20
168.5975521835026
 10
327.4015308756596
 20
168.7602263975606
 10
326.9298365180158
 20
168.8582615061436
 10
326.4307282695937
 20
168.8854976203751
 10
325.935567995497
 20
168.84022359665
 10
325.4754666553718
 20
168.7252838643069
 10
325.079336328752
 20
168.547900506231
  0
ARC
  5
13AC
330
1F
100
AcDbEntity
  8
0
  6
Continuous
 62
     7
370
    15
100
AcDbCircle
 10
325.8813867444413
 20
167.7314922605886
 30
0.0
 40
0.1309842193660653
100
AcDbArc
 50
290.7832442576744
 51
69.21675574232192
  0
LINE
  5
13AD
330
1F
100
AcDbEntity
  8
0
  6
Continuous
 62
     7
370
    15
100
AcDbLine
 10
325.9278643418426
 20
167.609031251844
 30
0.0
 11
325.6803760717531
 21
167.466159314636
 31
0.0
  0
LINE
  5
13AE
330
1F
100
AcDbEntity
  8
0
  6
Continuous
 62
     7
370
    15
100
AcDbLine
 10
325.6803760717531
 20
167.466159314636
 30
0.0
 11
326.0339295202983
 21
167.2620572532254
 31
0.0
  0
LINE
  5
13AF
330
1F
100
AcDbEntity
  8
0
  6
Continuous
 62
     7
370
    15
100
AcDbLine
 10
326.0339295202983
 20
167.2620572532254
 30
0.0
 11
326.2814177903877
 21
167.4049291904334
 31
0.0
  0
ARC
  5
13B0
330
1F
100
AcDbEntity
  8
0
  6
Continuous
 62
     7
370
    15
100
AcDbCircle
 10
326.4935494267986
 20
166.9955163166478
 30
0.0
 40
0.4611059882366606
100
AcDbArc
 50
62.60958763757729
 51
117.3903096805236
  0
LINE
  5
13B1
330
1F
100
AcDbEntity
  8
0
  6
Continuous
 62
     7
370
    15
100
AcDbLine
 10
326.7056817969332
 20
167.4049288102638
 30
0.0
 11
326.953169408478
 21
167.2620572532254
 31
0.0
  0
LINE
  5
13B2
330
1F
100
AcDbEntity
  8
0
  6
Continuous
 62
     7
370
    15
100
AcDbLine
 10
326.953169408478
 20
167.2620572532254
 30
0.0
 11
327.3067228570233
 21
167.466159314636
 31
0.0
  0
LINE
  5
13B3
330
1F
100
AcDbEntity
  8
0
  6
Continuous
 62
     7
370
    15
100
AcDbLine
 10
327.3067228570233
 20
167.466159314636
 30
0.0
 11
327.0592352454784
 21
167.6090308716744
 31
0.0
  0
ARC
  5
13B4
330
1F
100
AcDbEntity
  8
0
  6
Continuous
 62
     7
370
    15
100
AcDbCircle
 10
327.1057135614124
 20
167.7314922605886
 30
0.0
 40
0.130984829758518
100
AcDbArc
 50
110.7834791015643
 51
249.2165208984356
  0
LINE
  5
13B5
330
1F
100
AcDbEntity
  8
0
  6
Continuous
 62
     7
370
    15
100
AcDbLine
 10
327.0592352454784
 20
167.8539536495028
 30
0.0
 11
327.3067221984788
 21
167.9968248263715
 31
0.0
  0
LINE
  5
13B6
330
1F
100
AcDbEntity
  8
0
  6
Continuous
 62
     7
370
    15
100
AcDbLine
 10
327.3067221984788
 20
167.9968248263715
 30
0.0
 11
326.9531687499336
 21
168.2009268877821
 31
0.0
  0
LINE
  5
13B7
330
1F
100
AcDbEntity
  8
0
  6
Continuous
 62
     7
370
    15
100
AcDbLine
 10
326.9531687499336
 20
168.2009268877821
 30
0.0
 11
326.7056817969332
 21
168.0580557109134
 31
0.0
  0
ARC
  5
13B8
330
1F
100
AcDbEntity
  8
0
  6
Continuous
 62
     7
370
    15
100
AcDbCircle
 10
326.4935494267986
 20
168.4674682045293
 30
0.0
 40
0.4611059882366164
100
AcDbArc
 50
242.6096903194728
 51
297.3904123624264
  0
LINE
  5
13B9
330
1F
100
AcDbEntity
  8
0
  6
Continuous
 62
     7
370
    15
100
AcDbLine
 10
326.2814177903877
 20
168.0580553307438
 30
0.0
 11
326.0339301788428
 21
168.2009268877821
 31
0.0
  0
LINE
  5
13BA
330
1F
100
AcDbEntity
  8
0
  6
Continuous
 62
     7
370
    15
100
AcDbLine
 10
326.0339301788428
 20
168.2009268877821
 30
0.0
 11
325.6803767302977
 21
167.9968248263715
 31
0.0
  0
LINE
  5
13BB
330
1F
100
AcDbEntity
  8
0
  6
Continuous
 62
     7
370
    15
100
AcDbLine
 10
325.6803767302977
 20
167.9968248263715
 30
0.0
 11
325.9278643418426
 21
167.8539532693332
 31
0.0
  0
LINE
  5
13BC
330
1F
100
AcDbEntity
  8
0
  6
Continuous
 62
     7
370
    15
100
AcDbLine
 10
326.9531687499336
 20
167.6754642812657
 30
0.0
 11
326.9531687499336
 21
168.2009268877821
 31
0.0
  0
LINE
  5
13BD
330
1F
100
AcDbEntity
  8
0
  6
Continuous
 62
     7
370
    15
100
AcDbLine
 10
326.0339301788428
 20
167.6754642812657
 30
0.0
 11
326.0339301788428
 21
168.2009268877821
 31
0.0
  0
LWPOLYLINE
  5
13BE
330
1F
100
AcDbEntity
  8
0
  6
Continuous
 62
     7
370
    15
100
AcDbPolyline
 90
        8
 70
   128
 43
0.0
 10
315.8869473251215
 20
168.5479001260614
 10
315.5796783602309
 20
168.3192189561193
 10
315.3805740136874
 20
168.0536081061509
 10
315.3021492653207
 20
167.7677585445717
 10
315.3493273938726
 20
167.479629485757
 10
315.5191489003241
 20
167.2073253688899
 10
315.8009387782009
 20
166.9679576300211
 10
315.8193688048013
 20
166.9560575595643
  0
LWPOLYLINE
  5
13BF
330
1F
100
AcDbEntity
  8
0
  6
Continuous
 62
     7
370
    15
100
AcDbPolyline
 90
       14
 70
   128
 43
0.0
 10
318.7829547508922
 20
166.9560567992249
 10
318.8814716921975
 20
167.0238448499301
 10
319.1366708599308
 20
167.2729548163092
 10
319.2765378108924
 20
167.5508770802983
 10
319.2922862442562
 20
167.8401474084092
 10
319.1829230749046
 20
168.1225906499037
 10
318.9553221904116
 20
168.3804597250722
 10
318.6237845433128
 20
168.597551803333
 10
318.2091438476626
 20
168.7602263975606
 10
317.7374481729298
 20
168.8582622664829
 10
317.2383399245078
 20
168.8854976203751
 10
316.7431789918666
 20
168.8402232164803
 10
316.2830789688303
 20
168.7252834841373
 10
315.8869473251215
 20
168.5479001260614
  0
ARC
  5
13C0
330
1F
100
AcDbEntity
  8
0
  6
Continuous
 62
     7
370
    15
100
AcDbCircle
 10
316.6889988383533
 20
167.7314925105227
 30
0.0
 40
0.1309844190296969
100
AcDbArc
 50
290.7826976054504
 51
69.21668617059338
  0
LINE
  5
13C1
330
1F
100
AcDbEntity
  8
0
  6
Continuous
 62
     7
370
    15
100
AcDbLine
 10
316.7354753382122
 20
167.6090308716744
 30
0.0
 11
316.4879890437562
 21
167.4661600749754
 31
0.0
  0
LINE
  5
13C2
330
1F
100
AcDbEntity
  8
0
  6
Continuous
 62
     7
370
    15
100
AcDbLine
 10
316.4879890437562
 20
167.4661600749754
 30
0.0
 11
316.841543150846
 21
167.2620576333951
 31
0.0
  0
LINE
  5
13C3
330
1F
100
AcDbEntity
  8
0
  6
Continuous
 62
     7
370
    15
100
AcDbLine
 10
316.841543150846
 20
167.2620576333951
 30
0.0
 11
317.0890294453019
 21
167.4049284300941
 31
0.0
  0
ARC
  5
13C4
330
1F
100
AcDbEntity
  8
0
  6
Continuous
 62
     7
370
    15
100
AcDbCircle
 10
317.3011625115722
 20
166.9955145127109
 30
0.0
 40
0.4611075726469592
100
AcDbArc
 50
62.60979758764324
 51
117.3904077758275
  0
LINE
  5
13C5
330
1F
100
AcDbEntity
  8
0
  6
Continuous
 62
     7
370
    15
100
AcDbLine
 10
317.5132941103917
 20
167.4049291904334
 30
0.0
 11
317.7607817219367
 21
167.2620576333951
 31
0.0
  0
LINE
  5
13C6
330
1F
100
AcDbEntity
  8
0
  6
Continuous
 62
     7
370
    15
100
AcDbLine
 10
317.7607817219367
 20
167.2620576333951
 30
0.0
 11
318.1143345119374
 21
167.466159314636
 31
0.0
  0
LINE
  5
13C7
330
1F
100
AcDbEntity
  8
0
  6
Continuous
 62
     7
370
    15
100
AcDbLine
 10
318.1143345119374
 20
167.466159314636
 30
0.0
 11
317.8668469003924
 21
167.6090308716744
 31
0.0
  0
ARC
  5
13C8
330
1F
100
AcDbEntity
  8
0
  6
Continuous
 62
     7
370
    15
100
AcDbCircle
 10
317.9133256553348
 20
167.7314918804189
 30
0.0
 40
0.1309846301049959
100
AcDbArc
 50
110.7837176460463
 51
249.2162823539537
  0
LINE
  5
13C9
330
1F
100
AcDbEntity
  8
0
  6
Continuous
 62
     7
370
    15
100
AcDbLine
 10
317.8668469003924
 20
167.8539528891635
 30
0.0
 11
318.1143345119374
 21
167.9968244462018
 31
0.0
  0
LINE
  5
13CA
330
1F
100
AcDbEntity
  8
0
  6
Continuous
 62
     7
370
    15
100
AcDbLine
 10
318.1143345119374
 20
167.9968244462018
 30
0.0
 11
317.7607804048477
 21
168.2009268877821
 31
0.0
  0
LINE
  5
13CB
330
1F
100
AcDbEntity
  8
0
  6
Continuous
 62
     7
370
    15
100
AcDbLine
 10
317.7607804048477
 20
168.2009268877821
 30
0.0
 11
317.5132927933026
 21
168.0580553307438
 31
0.0
  0
ARC
  5
13CC
330
1F
100
AcDbEntity
  8
0
  6
Continuous
 62
     7
370
    15
100
AcDbCircle
 10
317.3011611193023
 20
168.467466400614
 30
0.0
 40
0.461104403846334
100
AcDbArc
 50
242.6095830520018
 51
297.3904169480018
  0
LINE
  5
13CD
330
1F
100
AcDbEntity
  8
0
  6
Continuous
 62
     7
370
    15
100
AcDbLine
 10
317.0890294453019
 20
168.0580553307438
 30
0.0
 11
316.8415418337569
 21
168.2009268877821
 31
0.0
  0
LINE
  5
13CE
330
1F
100
AcDbEntity
  8
0
  6
Continuous
 62
     7
370
    15
100
AcDbLine
 10
316.8415418337569
 20
168.2009268877821
 30
0.0
 11
316.4879890437562
 21
167.9968252065411
 31
0.0
  0
LINE
  5
13CF
330
1F
100
AcDbEntity
  8
0
  6
Continuous
 62
     7
370
    15
100
AcDbLine
 10
316.4879890437562
 20
167.9968252065411
 30
0.0
 11
316.7354766553012
 21
167.8539536495028
 31
0.0
  0
LINE
  5
13D0
330
1F
100
AcDbEntity
  8
0
  6
Continuous
 62
     7
370
    15
100
AcDbLine
 10
317.7607817219367
 20
167.6754642812657
 30
0.0
 11
317.7607804048477
 21
168.2009268877821
 31
0.0
  0
LINE
  5
13D1
330
1F
100
AcDbEntity
  8
0
  6
Continuous
 62
     7
370
    15
100
AcDbLine
 10
316.841543150846
 20
167.6754642812657
 30
0.0
 11
316.8415418337569
 21
168.2009268877821
 31
0.0
  0
LINE
  5
13D2
330
1F
100
AcDbEntity
  8
0
  6
Continuous
 62
     7
370
    15
100
AcDbLine
 10
324.0186759831164
 20
167.282493961317
 30
0.0
 11
324.3722294316616
 21
167.0783918999064
 31
0.0
  0
ARC
  5
13D3
330
1F
100
AcDbEntity
  8
0
  6
Continuous
 62
     7
370
    15
100
AcDbCircle
 10
321.8973552918452
 20
163.1883552360667
 30
0.0
 40
4.611070740816018
100
AcDbArc
 50
62.60969967153712
 51
117.3903003284628
  0
LINE
  5
13D4
330
1F
100
AcDbEntity
  8
0
  6
Continuous
 62
     7
370
    15
100
AcDbLine
 10
319.4224818105734
 20
167.0783922800761
 30
0.0
 11
319.7760346005741
 21
167.282493961317
 31
0.0
  0
ARC
  5
13D5
330
1F
100
AcDbEntity
  8
0
  6
Continuous
 62
     7
370
    15
100
AcDbCircle
 10
317.301161044122
 20
171.1725247123407
 30
0.0
 40
4.6110651879038
100
AcDbArc
 50
242.6096834049759
 51
297.3903371314059
  0
LINE
  5
13D6
330
1F
100
AcDbEntity
  8
0
  6
Continuous
 62
     7
370
    15
100
AcDbLine
 10
290.0775515082232
 20
181.5696352187023
 30
0.0
 11
315.1798417451201
 21
167.0783915197368
 31
0.0
  0
ARC
  5
13D7
330
1F
100
AcDbEntity
  8
0
  6
Continuous
 62
     7
370
    15
100
AcDbCircle
 10
290.5423337805599
 20
182.794248217276
 30
0.0
 40
1.30984715022566
100
AcDbArc
 50
110.7835182720484
 51
249.2165433504067
  0
LINE
  5
13D8
330
1F
100
AcDbEntity
  8
0
  6
Continuous
 62
     7
370
    15
100
AcDbLine
 10
315.1798404280312
 20
198.5101044149344
 30
0.0
 11
290.0775501911343
 21
184.0188607159689
 31
0.0
  0
ARC
  5
13D9
330
1F
100
AcDbEntity
  8
0
  6
Continuous
 62
     7
370
    15
100
AcDbCircle
 10
317.3011610441208
 20
194.4159617396823
 30
0.0
 40
4.611074213409219
100
AcDbArc
 50
62.60970254454186
 51
117.3902769190911
  0
LINE
  5
13DA
330
1F
100
AcDbEntity
  8
0
  6
Continuous
 62
     7
370
    15
100
AcDbLine
 10
319.7760346005742
 20
198.3060027336934
 30
0.0
 11
319.4224831276625
 21
198.5101036545951
 31
0.0
  0
ARC
  5
13DB
330
1F
100
AcDbEntity
  8
0
  6
Continuous
 62
     7
370
    15
100
AcDbCircle
 10
321.8973566841158
 20
202.4001446486065
 30
0.0
 40
4.611074213409433
100
AcDbArc
 50
242.6097025445419
 51
297.3902769190911
  0
LINE
  5
13DC
330
1F
100
AcDbEntity
  8
0
  6
Continuous
 62
     7
370
    15
100
AcDbLine
 10
324.3722300902062
 20
198.5101036545951
 30
0.0
 11
324.0186773002055
 21
198.3060019733541
 31
0.0
  0
ARC
  5
13DD
330
1F
100
AcDbEntity
  8
0
  6
Continuous
 62
     7
370
    15
100
AcDbCircle
 10
326.4935508566572
 20
194.4159735653239
 30
0.0
 40
4.611063107576391
100
AcDbArc
 50
62.60967001136986
 51
117.3903505250106
  0
LINE
  5
13DE
330
1F
100
AcDbEntity
  8
0
  6
Continuous
 62
     7
370
    15
100
AcDbLine
 10
353.7171610511009
 20
184.0188603357992
 30
0.0
 11
328.6148701556594
 21
198.5101044149344
 31
0.0
  0
ARC
  5
13DF
330
1F
100
AcDbEntity
  8
0
  6
Continuous
 62
     7
370
    15
100
AcDbCircle
 10
353.2523792535525
 20
182.7942482823903
 30
0.0
 40
1.309846098091951
100
AcDbArc
 50
290.7834210917087
 51
69.21654809704968
  0
LINE
  5
13E0
330
1F
100
AcDbEntity
  8
0
  6
Continuous
 62
     7
370
    15
100
AcDbLine
 10
328.6148701556593
 20
167.0783922800761
 30
0.0
 11
353.7171603925564
 21
181.5696359790416
 31
0.0
  0
ARC
  5
13E1
330
1F
100
AcDbEntity
  8
0
  6
Continuous
 62
     7
370
    15
100
AcDbCircle
 10
326.4935494267979
 20
171.1725270362539
 30
0.0
 40
4.611067233996954
100
AcDbArc
 50
242.6096868360324
 51
297.3903234321576
  0
LWPOLYLINE
  5
13E2
330
1F
100
AcDbEntity
  8
0
  6
Continuous
 62
     7
370
    15
100
AcDbPolyline
 90
       27
 70
   128
 43
0.0
 10
315.7455262091213
 20
166.9967508472404
 10
315.4184416399854
 20
167.2377639603644
 10
315.2007755579399
 20
167.5169613133674
 10
315.1051746517161
 20
167.8181172654884
 10
315.1371983540503
 20
168.1237295662739
 10
315.2949816668959
 20
168.4160382102461
 10
315.5693589677908
 20
168.6780534156428
 10
315.9443803087516
 20
168.8945486275494
 10
316.3982531349204
 20
169.0529432718313
 10
316.9046014216633
 20
169.1440296395092
 10
317.4339934978294
 20
169.1625157690229
 10
317.9556687494511
 20
169.1073273009349
 10
318.4393038361136
 20
168.9816705860929
 10
318.8567960294833
 20
168.792848683518
 10
319.1838805986191
 20
168.5518355703941
 10
319.4015479977537
 20
168.2726389777303
 10
319.4971475868884
 20
167.9714822652701
 10
319.4651252016433
 20
167.6658707248239
 10
319.3073418887977
 20
167.3735620808517
 10
319.0329645879028
 20
167.1115468754549
 10
318.6579432469418
 20
166.8950516635483
 10
318.204070420773
 20
166.7366570192665
 10
317.6977221340303
 20
166.6455706515886
 10
317.1683287407751
 20
166.6270837617356
 10
316.6466548062425
 20
166.6822729901628
 10
316.1630184024909
 20
166.8079289446655
 10
315.7455262091213
 20
166.9967508472404
  0
LWPOLYLINE
  5
13E3
330
1F
100
AcDbEntity
  8
0
  6
Continuous
 62
     7
370
    15
100
AcDbPolyline
 90
       27
 70
   128
 43
0.0
 10
324.9379145542072
 20
166.9967508472404
 10
324.6108306436158
 20
167.2377635801947
 10
324.3931639030258
 20
167.5169613133674
 10
324.2975629968019
 20
167.8181172654884
 10
324.3295860405916
 20
168.1237299464435
 10
324.4873706705263
 20
168.4160378300764
 10
324.7617459957877
 20
168.6780534156428
 10
325.1367679952931
 20
168.8945490077191
 10
325.5906421385508
 20
169.0529428916616
 10
326.0969884496602
 20
169.1440296395092
 10
326.62638250146
 20
169.1625161491925
 10
327.1480564359925
 20
169.1073269207653
 10
327.631692839744
 20
168.9816702059233
 10
328.0491850331137
 20
168.7928490636877
 10
328.3762682851606
 20
168.5518359505637
 10
328.5939356842951
 20
168.2726385975607
 10
328.6895359319744
 20
167.9714830256093
 10
328.6575135467293
 20
167.6658699644845
 10
328.4997295753392
 20
167.3735624610213
 10
328.2253535915332
 20
167.1115464952853
 10
327.8503315920278
 20
166.895050903209
 10
327.3964581073145
 20
166.7366573994361
 10
326.8901111376607
 20
166.6455702714189
 10
326.3607164273166
 20
166.6270841419052
 10
325.8390431513284
 20
166.6822729901628
 10
325.3554060890324
 20
166.8079293248352
 10
324.9379145542072
 20
166.9967508472404
  0
LWPOLYLINE
  5
13E4
330
1F
100
AcDbEntity
  8
0
  6
Continuous
 62
     7
370
    15
100
AcDbPolyline
 90
       27
 70
   128
 43
0.0
 10
315.7455268676658
 20
196.7956468709835
 10
315.4184429570745
 20
197.0366603642771
 10
315.2007762164846
 20
197.3158573371105
 10
315.1051739931717
 20
197.6170140495708
 10
315.1371976955058
 20
197.9226263503563
 10
315.2949829839849
 20
198.2149330934802
 10
315.5693589677909
 20
198.4769490592163
 10
315.9443809672963
 20
198.6934446512925
 10
316.3982544520096
 20
198.8518381550654
 10
316.9046001045743
 20
198.9429260434219
 10
317.4339934978295
 20
198.961412933275
 10
317.9556687494512
 20
198.9062229445084
 10
318.4393051532027
 20
198.7805669900057
 10
318.8567973465724
 20
198.5917450874308
 10
319.1838819157083
 20
198.3507319743068
 10
319.4015479977537
 20
198.0715346213038
 10
319.4971475868886
 20
197.7703794295221
 10
319.4651265187324
 20
197.464765608058
 10
319.3073405717088
 20
197.1724584847644
 10
319.0329652464474
 20
196.910442899198
 10
318.6579432469419
 20
196.6939473071218
 10
318.2040691036842
 20
196.5355534231792
 10
317.6977241096639
 20
196.4444659149924
 10
317.1683280822307
 20
196.425980545818
 10
316.646655464787
 20
196.4811690139059
 10
316.1630197195801
 20
196.6068253485783
 10
315.7455268676658
 20
196.7956468709835
  0
LWPOLYLINE
  5
13E5
330
1F
100
AcDbEntity
  8
0
  6
Continuous
 62
     7
370
    15
100
AcDbPolyline
 90
       27
 70
   128
 43
0.0
 10
324.9379145542073
 20
196.7956480114925
 10
324.6108326192494
 20
197.0366596039378
 10
324.3931625859369
 20
197.3158577172801
 10
324.2975643138911
 20
197.6170136694011
 10
324.3295866991362
 20
197.9226252098473
 10
324.4873700119819
 20
198.2149338538195
 10
324.7617459957878
 20
198.4769498195556
 10
325.1367673367487
 20
198.6934450314621
 10
325.5906414800064
 20
198.8518389154047
 10
326.0969897667493
 20
198.9429252830826
 10
326.6263831600045
 20
198.9614121729356
 10
327.1480557774481
 20
198.9062237048477
 10
327.6316948153776
 20
198.7805662296664
 10
328.0491843745693
 20
198.5917458477701
 10
328.3762689437052
 20
198.3507327346461
 10
328.5939350257507
 20
198.0715353816431
 10
328.6895372490635
 20
197.7703786691828
 10
328.6575135467293
 20
197.4647663683973
 10
328.4997302338837
 20
197.1724577244251
 10
328.2253542500779
 20
196.910441758689
 10
327.8503329091169
 20
196.6939465467825
 10
327.3964587658592
 20
196.53555266284
 10
326.8901104791163
 20
196.444466295162
 10
326.3607184029502
 20
196.4259801656483
 10
325.8390418342395
 20
196.4811693940756
 10
325.3554067475771
 20
196.6068261089175
 10
324.9379145542073
 20
196.7956480114925
  0
ARC
  5
13E6
330
1F
100
AcDbEntity
  8
0
  6
Continuous
 62
     7
370
    15
100
AcDbCircle
 10
334.8672833587932
 20
164.6930166280649
 30
0.0
 40
3.073610240695594
100
AcDbArc
 50
122.6054795161581
 51
177.3945203382134
  0
LINE
  5
13E7
330
1F
100
AcDbEntity
  8
0
  6
Continuous
 62
     7
370
    15
100
AcDbLine
 10
354.4242672896467
 20
177.8952680733115
 30
0.0
 11
354.4242672896467
 21
171.3629420284195
 31
0.0
  0
ARC
  5
13E8
330
1F
100
AcDbEntity
  8
0
  6
Continuous
 62
     7
370
    15
100
AcDbCircle
 10
351.353833000274
 20
171.5026646699931
 30
0.0
 40
3.073611742221931
100
AcDbArc
 50
302.6054940215248
 51
357.3945058328512
  0
LINE
  5
13E9
330
1F
100
AcDbEntity
  8
0
  6
Continuous
 62
     7
370
    15
100
AcDbLine
 10
353.010053495466
 20
168.9134518913227
 30
0.0
 11
333.2110643282023
 21
157.4837387333466
 31
0.0
  0
ARC
  5
13EA
330
1F
100
AcDbEntity
  8
0
  6
Continuous
 62
     7
370
    15
100
AcDbCircle
 10
332.6589993013901
 20
158.1605577740238
 30
0.0
 40
0.8734184607920806
100
AcDbArc
 50
170.7859496665921
 51
309.2032985786602
  0
LINE
  5
13EB
330
1F
100
AcDbEntity
  8
0
  6
Continuous
 62
     7
370
    15
100
AcDbLine
 10
331.7968505340216
 20
158.3004123791587
 30
0.0
 11
331.7968505340216
 21
164.8327384240506
 31
0.0
  0
LINE
  5
13EC
330
1F
100
AcDbEntity
  8
0
  6
Continuous
 62
     7
370
    15
100
AcDbLine
 10
333.2110643282023
 20
167.2822285611474
 30
0.0
 11
353.010053495466
 21
178.7119417191235
 31
0.0
  0
ARC
  5
13ED
330
1F
100
AcDbEntity
  8
0
  6
Continuous
 62
     7
370
    15
100
AcDbCircle
 10
353.5621181035782
 20
178.0351219533937
 30
0.0
 40
0.8734187579922302
100
AcDbArc
 50
350.7860010139577
 51
129.2032472312937
  0
ARC
  5
13EE
330
1F
100
AcDbEntity
  8
0
  6
Continuous
 62
     7
370
    15
100
AcDbCircle
 10
321.8973552562707
 20
169.4457153139888
 30
0.0
 40
6.121474819156937
100
AcDbArc
 50
242.4805361942753
 51
297.5194715068677
  0
LINE
  5
13EF
330
1F
100
AcDbEntity
  8
0
  6
Continuous
 62
     7
370
    15
100
AcDbLine
 10
324.7257828802068
 20
164.0168617390866
 30
0.0
 11
324.7257828802068
 21
150.5439384159762
 31
0.0
  0
ARC
  5
13F0
330
1F
100
AcDbEntity
  8
0
  6
Continuous
 62
     7
370
    15
100
AcDbCircle
 10
321.8973552562707
 20
155.9727922357835
 30
0.0
 40
6.121475036352009
100
AcDbArc
 50
242.4805372534154
 51
297.5194704477272
  0
LINE
  5
13F1
330
1F
100
AcDbEntity
  8
0
  6
Continuous
 62
     7
370
    15
100
AcDbLine
 10
319.0689283620283
 20
164.016861358917
 30
0.0
 11
319.0689283620283
 21
150.5439380358066
 31
0.0
  0
LINE
  5
13F2
330
1F
100
AcDbEntity
  8
0
  6
Continuous
 62
     7
370
    15
100
AcDbLine
 10
354.4242679481913
 20
184.4270644586204
 30
0.0
 11
324.7257841972959
 21
201.5716341955846
 31
0.0
  0
ARC
  5
13F3
330
1F
100
AcDbEntity
  8
0
  6
Continuous
 62
     7
370
    15
100
AcDbCircle
 10
353.7872473633907
 20
182.7942482858813
 30
0.0
 40
1.752679057733581
100
AcDbArc
 50
291.3125302264765
 51
68.68744666509551
  0
LINE
  5
13F4
330
1F
100
AcDbEntity
  8
0
  6
Continuous
 62
     7
370
    15
100
AcDbLine
 10
324.7257828802068
 20
164.0168617390866
 30
0.0
 11
354.4242672896467
 21
181.1614318562204
 31
0.0
  0
LINE
  5
13F5
330
1F
100
AcDbEntity
  8
0
  6
Continuous
 62
     7
370
    15
100
AcDbLine
 10
289.3704446111328
 20
181.1614310958811
 30
0.0
 11
319.0689283620283
 21
164.016861358917
 31
0.0
  0
ARC
  5
13F6
330
1F
100
AcDbEntity
  8
0
  6
Continuous
 62
     7
370
    15
100
AcDbCircle
 10
290.00746333082
 20
182.794247587166
 30
0.0
 40
1.752678676610074
100
AcDbArc
 50
111.3124927485186
 51
248.6875072514814
  0
LINE
  5
13F7
330
1F
100
AcDbEntity
  8
0
  6
Continuous
 62
     7
370
    15
100
AcDbLine
 10
319.0689290205729
 20
201.5716341955846
 30
0.0
 11
289.3704446111328
 21
184.4270640784508
 31
0.0
  0
ARC
  5
13F8
330
1F
100
AcDbEntity
  8
0
  6
Continuous
 62
     7
370
    15
100
AcDbCircle
 10
321.8973566089344
 20
196.1427859178749
 30
0.0
 40
6.121470104884524
100
AcDbArc
 50
62.4805058796653
 51
117.5194941203347
  0
LINE
  5
13F9
330
1F
100
AcDbEntity
  8
0
  6
Continuous
 62
     7
370
    15
100
AcDbLine
 10
315.1798404280312
 20
198.5101044149344
 30
0.0
 11
290.0775501911343
 21
184.0188607159689
 31
0.0
  0
ARC
  5
13FA
330
1F
100
AcDbEntity
  8
0
  6
Continuous
 62
     7
370
    15
100
AcDbCircle
 10
290.5423337805599
 20
182.794248217276
 30
0.0
 40
1.30984715022566
100
AcDbArc
 50
110.7835182720484
 51
249.2165433504067
  0
LINE
  5
13FB
330
1F
100
AcDbEntity
  8
0
  6
Continuous
 62
     7
370
    15
100
AcDbLine
 10
290.0775515082232
 20
181.5696352187023
 30
0.0
 11
315.1798417451201
 21
167.0783915197368
 31
0.0
  0
ARC
  5
13FC
330
1F
100
AcDbEntity
  8
0
  6
Continuous
 62
     7
370
    15
100
AcDbCircle
 10
317.301161044122
 20
171.1725247123407
 30
0.0
 40
4.6110651879038
100
AcDbArc
 50
242.6096834049759
 51
297.3903371314059
  0
LINE
  5
13FD
330
1F
100
AcDbEntity
  8
0
  6
Continuous
 62
     7
370
    15
100
AcDbLine
 10
319.4224818105734
 20
167.0783922800761
 30
0.0
 11
319.7760346005741
 21
167.282493961317
 31
0.0
  0
ARC
  5
13FE
330
1F
100
AcDbEntity
  8
0
  6
Continuous
 62
     7
370
    15
100
AcDbCircle
 10
321.8973552918452
 20
163.1883552360667
 30
0.0
 40
4.611070740816018
100
AcDbArc
 50
62.60969967153712
 51
117.3903003284628
  0
LINE
  5
13FF
330
1F
100
AcDbEntity
  8
0
  6
Continuous
 62
     7
370
    15
100
AcDbLine
 10
324.0186759831164
 20
167.282493961317
 30
0.0
 11
324.3722294316616
 21
167.0783918999064
 31
0.0
  0
ARC
  5
1400
330
1F
100
AcDbEntity
  8
0
  6
Continuous
 62
     7
370
    15
100
AcDbCircle
 10
326.4935494267979
 20
171.1725270362539
 30
0.0
 40
4.611067233996954
100
AcDbArc
 50
242.6096868360324
 51
297.3903234321576
  0
LINE
  5
1401
330
1F
100
AcDbEntity
  8
0
  6
Continuous
 62
     7
370
    15
100
AcDbLine
 10
328.6148701556593
 20
167.0783922800761
 30
0.0
 11
353.7171603925564
 21
181.5696359790416
 31
0.0
  0
ARC
  5
1402
330
1F
100
AcDbEntity
  8
0
  6
Continuous
 62
     7
370
    15
100
AcDbCircle
 10
353.2523792535525
 20
182.7942482823903
 30
0.0
 40
1.309846098091951
100
AcDbArc
 50
290.7834210917087
 51
69.21654809704968
  0
LINE
  5
1403
330
1F
100
AcDbEntity
  8
0
  6
Continuous
 62
     7
370
    15
100
AcDbLine
 10
353.7171610511009
 20
184.0188603357992
 30
0.0
 11
328.6148701556594
 21
198.5101044149344
 31
0.0
  0
ARC
  5
1404
330
1F
100
AcDbEntity
  8
0
  6
Continuous
 62
     7
370
    15
100
AcDbCircle
 10
326.4935508566572
 20
194.4159735653239
 30
0.0
 40
4.611063107576391
100
AcDbArc
 50
62.60967001136986
 51
117.3903505250106
  0
LINE
  5
1405
330
1F
100
AcDbEntity
  8
0
  6
Continuous
 62
     7
370
    15
100
AcDbLine
 10
324.3722300902062
 20
198.5101036545951
 30
0.0
 11
324.0186773002055
 21
198.3060019733541
 31
0.0
  0
ARC
  5
1406
330
1F
100
AcDbEntity
  8
0
  6
Continuous
 62
     7
370
    15
100
AcDbCircle
 10
321.8973566841158
 20
202.4001446486065
 30
0.0
 40
4.611074213409433
100
AcDbArc
 50
242.6097025445419
 51
297.3902769190911
  0
LINE
  5
1407
330
1F
100
AcDbEntity
  8
0
  6
Continuous
 62
     7
370
    15
100
AcDbLine
 10
319.7760346005742
 20
198.3060027336934
 30
0.0
 11
319.4224831276625
 21
198.5101036545951
 31
0.0
  0
ARC
  5
1408
330
1F
100
AcDbEntity
  8
0
  6
Continuous
 62
     7
370
    15
100
AcDbCircle
 10
317.3011610441208
 20
194.4159617396823
 30
0.0
 40
4.611074213409219
100
AcDbArc
 50
62.60970254454186
 51
117.3902769190911
  0
LWPOLYLINE
  5
1409
330
1F
100
AcDbEntity
  8
0
  6
Continuous
 62
     7
370
    15
100
AcDbPolyline
 90
       32
 70
   128
 43
0.0
 10
319.7053253596631
 20
198.6733849995879
 10
320.1914484274768
 20
198.4445601255172
 10
320.7474127745401
 20
198.2769083502014
 10
321.3504538343009
 20
198.1772970582398
 10
321.9758880415113
 20
198.1498009079662
 10
322.5981046002556
 20
198.1955474825691
 10
323.1916336431433
 20
198.3126648266807
 10
323.7321735607405
 20
198.4963574803065
 10
324.1975972575793
 20
198.7391041670451
 10
324.5688490897766
 20
199.0309657315061
 10
324.830729850088
 20
199.3599957225352
 10
324.9725171168348
 20
199.712723208672
 10
324.9884051616343
 20
200.0747078258428
 10
324.8777486108689
 20
200.4311275196429
 10
324.6450729823976
 20
200.767392899495
 10
324.2999047810725
 20
201.0697365016098
 10
323.8563750549462
 20
201.3257807624472
 10
323.3326464615486
 20
201.5250406029962
 10
322.7501546246148
 20
201.6593613842146
 10
322.1327480749567
 20
201.7232435719118
 10
321.5057070191468
 20
201.7140700782013
 10
320.8946988879284
 20
201.6322180313782
 10
320.3247378358925
 20
201.4810390070974
 10
319.819163997491
 20
201.2667198862807
 10
319.3986688411649
 20
200.9980365051823
 10
319.0804693545307
 20
200.6859894528616
 10
318.8775941821345
 20
200.3433524296367
 10
318.7983502044
 20
199.9841544560174
 10
318.8459800944843
 20
199.6230989734769
 10
319.0185306093769
 20
199.2749707797939
 10
319.3089434690412
 20
198.9540193938766
 10
319.7053253596631
 20
198.6733849995879
  0
LWPOLYLINE
  5
140A
330
1F
100
AcDbEntity
  8
0
  6
Continuous
 62
     7
370
    15
100
AcDbPolyline
 90
       32
 70
   128
 43
0.0
 10
319.7053247011185
 20
164.3842451454901
 10
320.1914477689321
 20
164.1554187507408
 10
320.7474127745399
 20
163.9877681159339
 10
321.3504538343008
 20
163.8881553032938
 10
321.9758867244221
 20
163.8606599133594
 10
322.5981046002555
 20
163.9064072483016
 10
323.1916336431432
 20
164.0235245924132
 10
323.7321748778295
 20
164.2072164856997
 10
324.1975972575792
 20
164.449962412099
 10
324.5688490897765
 20
164.7418254972387
 10
324.8307291915434
 20
165.0708558684374
 10
324.9725164582901
 20
165.4235833545742
 10
324.9884058201788
 20
165.7855672114057
 10
324.8777479523243
 20
166.1419876655451
 10
324.6450723238529
 20
166.4782530453971
 10
324.2999047810723
 20
166.7805962673423
 10
323.856376372035
 20
167.0366397678404
 10
323.332645803004
 20
167.2359007488984
 10
322.7501539660701
 20
167.3702215301167
 10
322.1327487335011
 20
167.4341029574746
 10
321.5057063606023
 20
167.4249302241035
 10
320.8946982293837
 20
167.3430781772804
 10
320.3247391529814
 20
167.1918980124906
 10
319.8191626804018
 20
166.9775788916739
 10
319.3986688411647
 20
166.7088962709148
 10
319.0804706716197
 20
166.3968484582548
 10
318.8775954992234
 20
166.0542114350299
 10
318.7983502043999
 20
165.6950127010713
 10
318.8459787773952
 20
165.3339579788701
 10
319.0185319264658
 20
164.9858297851871
 10
319.3089428104967
 20
164.6648780191002
 10
319.7053247011185
 20
164.3842451454901
  0
ARC
  5
140B
330
1F
100
AcDbEntity
  8
0
  6
Continuous
 62
     7
370
    15
100
AcDbCircle
 10
334.8672833587932
 20
164.6930166280649
 30
0.0
 40
3.073610240695584
100
AcDbArc
 50
122.6054795161581
 51
177.3945203382134
  0
LINE
  5
140C
330
1F
100
AcDbEntity
  8
0
  6
Continuous
 62
     7
370
    15
100
AcDbLine
 10
331.7968505340216
 20
164.8327384240506
 30
0.0
 11
331.7968505340216
 21
158.3004123791587
 31
0.0
  0
ARC
  5
140D
330
1F
100
AcDbEntity
  8
0
  6
Continuous
 62
     7
370
    15
100
AcDbCircle
 10
332.6589993013901
 20
158.1605577740238
 30
0.0
 40
0.8734184607920997
100
AcDbArc
 50
170.7859496665929
 51
309.2032985786561
  0
LINE
  5
140E
330
1F
100
AcDbEntity
  8
0
  6
Continuous
 62
     7
370
    15
100
AcDbLine
 10
333.2110643282023
 20
157.4837387333466
 30
0.0
 11
353.010053495466
 21
168.9134518913227
 31
0.0
  0
ARC
  5
140F
330
1F
100
AcDbEntity
  8
0
  6
Continuous
 62
     7
370
    15
100
AcDbCircle
 10
351.353833000274
 20
171.5026646699931
 30
0.0
 40
3.073611742221931
100
AcDbArc
 50
302.6054940215248
 51
357.3945058328512
  0
LINE
  5
1410
330
1F
100
AcDbEntity
  8
0
  6
Continuous
 62
     7
370
    15
100
AcDbLine
 10
354.4242672896467
 20
171.3629420284195
 30
0.0
 11
354.4242672896467
 21
168.0967782455106
 31
0.0
  0
LINE
  5
1411
330
1F
100
AcDbEntity
  8
0
  6
Continuous
 62
     7
370
    15
100
AcDbLine
 10
327.5542091514793
 20
152.5850238593225
 30
0.0
 11
354.4242672896467
 21
168.0967782455106
 31
0.0
  0
LINE
  5
1412
330
1F
100
AcDbEntity
  8
0
  6
Continuous
 62
     7
370
    15
100
AcDbLine
 10
327.5542091514793
 20
152.1767541469217
 30
0.0
 11
327.5542091514793
 21
152.5850238593225
 31
0.0
  0
LINE
  5
1413
330
1F
100
AcDbEntity
  8
0
  6
Continuous
 62
     7
370
    15
100
AcDbLine
 10
327.5542091514793
 20
152.1767541469217
 30
0.0
 11
324.7257828802068
 21
150.5439384159762
 31
0.0
  0
LINE
  5
1414
330
1F
100
AcDbEntity
  8
0
  6
Continuous
 62
     7
370
    15
100
AcDbLine
 10
354.4242672896467
 20
181.1614318562204
 30
0.0
 11
354.4242672896467
 21
177.8952680733115
 31
0.0
  0
ARC
  5
1415
330
1F
100
AcDbEntity
  8
0
  6
Continuous
 62
     7
370
    15
100
AcDbCircle
 10
353.5621181035782
 20
178.0351219533937
 30
0.0
 40
0.8734187579922021
100
AcDbArc
 50
350.7860010139577
 51
129.2032472312937
  0
LINE
  5
1416
330
1F
100
AcDbEntity
  8
0
  6
Continuous
 62
     7
370
    15
100
AcDbLine
 10
353.010053495466
 20
178.7119417191235
 30
0.0
 11
333.2110643282023
 21
167.2822285611474
 31
0.0
  0
LINE
  5
1417
330
1F
100
AcDbEntity
  8
0
  6
Continuous
 62
     7
370
    15
100
AcDbLine
 10
289.3704446111328
 20
181.1614310958811
 30
0.0
 11
289.3704446111328
 21
168.0967774851714
 31
0.0
  0
LINE
  5
1418
330
1F
100
AcDbEntity
  8
0
  6
Continuous
 62
     7
370
    15
100
AcDbLine
 10
319.0689283620283
 20
150.5439380358066
 30
0.0
 11
316.2405014322112
 21
152.1767541469217
 31
0.0
  0
LINE
  5
1419
330
1F
100
AcDbEntity
  8
0
  6
Continuous
 62
     7
370
    15
100
AcDbLine
 10
316.2405014322112
 20
152.1767541469217
 30
0.0
 11
316.2405014322112
 21
152.5850238593225
 31
0.0
  0
LINE
  5
141A
330
1F
100
AcDbEntity
  8
0
  6
Continuous
 62
     7
370
    15
100
AcDbLine
 10
289.3704446111328
 20
168.0967774851714
 30
0.0
 11
316.2405014322112
 21
152.5850238593225
 31
0.0
  0
ARC
  5
141B
330
1F
100
AcDbEntity
  8
0
  6
Continuous
 62
     7
370
    15
100
AcDbCircle
 10
290.1983419482156
 20
169.9275289198873
 30
0.0
 40
2.009244837361369
100
AcDbArc
 50
185.653453873483
 51
245.6666976888712
  0
LINE
  5
141C
330
1F
100
AcDbEntity
  8
0
  6
Continuous
 62
     7
370
    15
100
AcDbLine
 10
354.4242672896467
 20
171.3629420284195
 30
0.0
 11
354.4242672896467
 21
177.8952680733115
 31
0.0
  0
ARC
  5
141D
330
1F
100
AcDbEntity
  8
0
  6
Continuous
 62
     7
370
    15
100
AcDbCircle
 10
353.6447421008841
 20
169.8928196794753
 30
0.0
 40
1.957913264788153
100
AcDbArc
 50
293.4620033712878
 51
355.2178734077039
  0
ARC
  5
141E
330
1F
100
AcDbEntity
  8
0
  6
Continuous
 62
     7
370
    15
100
AcDbCircle
 10
296.7462200718194
 20
184.4841606498615
 30
0.0
 40
3.839404342426082
100
AcDbArc
 50
101.3634512356764
 51
138.6311722316231
  0
LINE
  5
141F
330
1F
100
AcDbEntity
  8
0
  6
Continuous
 62
     7
370
    15
100
AcDbLine
 10
325.9804603160618
 20
197.091820714765
 30
0.0
 11
325.9278636832982
 21
197.4079280359264
 31
0.0
  0
LINE
  5
1420
330
1F
100
AcDbEntity
  8
0
  6
Continuous
 62
     7
370
    15
100
AcDbLine
 10
327.0066386127148
 20
197.0918191940864
 30
0.0
 11
327.0592352454784
 21
197.4079265152478
 31
0.0
  0
LINE
  5
1421
330
1F
100
AcDbEntity
  8
0
  6
Continuous
 62
     7
370
    15
100
AcDbLine
 10
326.825902389588
 20
197.1344236479847
 30
0.0
 11
326.7056811383887
 21
197.8569524949958
 31
0.0
  0
LINE
  5
1422
330
1F
100
AcDbEntity
  8
0
  6
Continuous
 62
     7
370
    15
100
AcDbLine
 10
326.1611978562776
 20
197.1344228876455
 30
0.0
 11
326.2814177903879
 21
197.8569509743172
 31
0.0
  0
LINE
  5
1423
330
1F
100
AcDbEntity
  8
0
  6
Continuous
 62
     7
370
    15
100
AcDbLine
 10
316.7880726295203
 20
197.091819574256
 30
0.0
 11
316.7354759967568
 21
197.4079268954174
 31
0.0
  0
LINE
  5
1424
330
1F
100
AcDbEntity
  8
0
  6
Continuous
 62
     7
370
    15
100
AcDbLine
 10
317.8142496090844
 20
197.0918203345954
 30
0.0
 11
317.866846241848
 21
197.4079276557567
 31
0.0
  0
LINE
  5
1425
330
1F
100
AcDbEntity
  8
0
  6
Continuous
 62
     7
370
    15
100
AcDbLine
 10
317.6335147030465
 20
197.1344225074758
 30
0.0
 11
317.5132934518473
 21
197.8569513544869
 31
0.0
  0
LINE
  5
1426
330
1F
100
AcDbEntity
  8
0
  6
Continuous
 62
     7
370
    15
100
AcDbLine
 10
316.9688081941026
 20
197.1344236479847
 30
0.0
 11
317.0890287867575
 21
197.8569521148262
 31
0.0
  0
LINE
  5
1427
330
1F
100
AcDbEntity
  8
0
  6
Continuous
 62
     7
370
    15
100
AcDbLine
 10
325.9804609746062
 20
167.2929239306826
 30
0.0
 11
325.9278643418426
 21
167.609031251844
 31
0.0
  0
LINE
  5
1428
330
1F
100
AcDbEntity
  8
0
  6
Continuous
 62
     7
370
    15
100
AcDbLine
 10
327.0066386127147
 20
167.2929235505129
 30
0.0
 11
327.0592352454784
 21
167.6090308716744
 31
0.0
  0
LINE
  5
1429
330
1F
100
AcDbEntity
  8
0
  6
Continuous
 62
     7
370
    15
100
AcDbLine
 10
326.8259023895879
 20
167.335527244072
 30
0.0
 11
326.7056817969332
 21
168.0580557109134
 31
0.0
  0
LINE
  5
142A
330
1F
100
AcDbEntity
  8
0
  6
Continuous
 62
     7
370
    15
100
AcDbLine
 10
326.161197197733
 20
167.3355268639024
 30
0.0
 11
326.2814177903877
 21
168.0580553307438
 31
0.0
  0
LINE
  5
142B
330
1F
100
AcDbEntity
  8
0
  6
Continuous
 62
     7
370
    15
100
AcDbLine
 10
316.7880719709757
 20
167.292923550513
 30
0.0
 11
316.7354753382122
 21
167.6090308716744
 31
0.0
  0
LINE
  5
142C
330
1F
100
AcDbEntity
  8
0
  6
Continuous
 62
     7
370
    15
100
AcDbLine
 10
317.8142502676288
 20
167.292923550513
 30
0.0
 11
317.8668469003924
 21
167.6090308716744
 31
0.0
  0
LINE
  5
142D
330
1F
100
AcDbEntity
  8
0
  6
Continuous
 62
     7
370
    15
100
AcDbLine
 10
317.633514044502
 20
167.3355264837327
 30
0.0
 11
317.5132927933026
 21
168.0580553307438
 31
0.0
  0
LINE
  5
142E
330
1F
100
AcDbEntity
  8
0
  6
Continuous
 62
     7
370
    15
100
AcDbLine
 10
316.9688095111916
 20
167.335527244072
 30
0.0
 11
317.0890294453019
 21
168.0580553307438
 31
0.0
  0
TEXT
  5
16FA
330
1F
100
AcDbEntity
  8
0
 62
     1
100
AcDbText
 10
713.5547995052024
 20
87.47621491997653
 30
0.0
 40
4.0
  1
OBJECT
 41
1.199999999999999
 51
5.0
  7
Demo
100
AcDbText
  0
LEADER
  5
16FB
330
1F
100
AcDbEntity
  8
0
100
AcDbLeader
  3
Vad-style
 76
     3
 10
692.5200146739612
 20
69.70214171967154
 30
0.0
 10
712.9108295232208
 20
85.70940800477854
 30
0.0
 10
738.6079620911223
 20
85.70940800477854
 30
0.0
1001
ACAD
1000
DSTYLE
1002
{
1070
    41
1040
6.0
1070
   140
1040
6.0
1002
}
  0
LINE
  5
16FC
330
1F
100
AcDbEntity
  8
0
 62
     1
100
AcDbLine
 10
668.0493269383732
 20
117.170719550135
 30
0.0
 11
668.0493269383732
 21
69.04920259264475
 31
0.0
  0
LWPOLYLINE
  5
16FD
330
1F
100
AcDbEntity
  8
0
370
    30
100
AcDbPolyline
 90
        4
 70
     1
 43
0.0
 10
692.5200146739612
 20
54.70214171967154
 10
692.5200146739612
 20
69.70214171967154
 10
642.5200146739612
 20
69.70214171967154
 10
642.5200146739612
 20
54.70214171967154
  0
DIMENSION
  5
16FE
330
1F
100
AcDbEntity
  8
0
100
AcDbDimension
  2
*D13
 10
786.5797600747048
 20
139.1150798368075
 30
0.0
 11
748.9708434882818
 21
174.9895860531026
 31
0.0
 70
    35
  1
2{\fProxy 1|b0|i0|c204|p0;hole} <>/%%c6x7
 71
     5
 42
3.599915920248122
  3
Vad-style
100
AcDbDiametricDimension
 15
783.7855287424154
 25
141.3848079911263
 35
0.0
 40
0.0
1001
ACAD
1000
DSTYLE
1002
{
1070
    41
1040
6.0
1070
   140
1040
6.0
1002
}
  0
LEADER
  5
1709
330
1F
100
AcDbEntity
  8
0
100
AcDbLeader
  3
Vad-style
 76
     3
 10
664.0493260666557
 20
121.762909753376
 30
0.0
 10
633.8247755812417
 20
93.78385812549153
 30
0.0
 10
586.8065130401146
 20
93.78385812549153
 30
0.0
1001
ACAD
1000
DSTYLE
1002
{
1070
    41
1040
6.0
1070
   140
1040
6.0
1002
}
  0
TEXT
  5
170A
330
1F
100
AcDbEntity
  8
0
 62
     1
100
AcDbText
 10
588.1357906014259
 20
95.12936873383399
 30
0.0
 40
4.0
  1
2 SCREWS M3
 41
1.199999999999999
 51
5.0
  7
Demo
100
AcDbText
  0
TEXT
  5
170B
330
1F
100
AcDbEntity
  8
0
 62
     1
100
AcDbText
 10
598.5409956115222
 20
205.7994002367831
 30
0.0
 40
4.0
  1
SENSOR
 41
1.199999999999999
 51
5.0
  7
Demo
100
AcDbText
  0
LEADER
  5
170C
330
1F
100
AcDbEntity
  8
0
100
AcDbLeader
  3
Vad-style
 76
     3
 10
661.5493270277806
 20
167.3629078907307
 30
0.0
 10
626.8334932844172
 20
204.4538896284406
 30
0.0
 10
598.4793917063152
 20
204.4538896284406
 30
0.0
1001
ACAD
1000
DSTYLE
1002
{
1070
    41
1040
6.0
1070
   140
1040
6.0
1002
}
  0
LWPOLYLINE
  5
1710
330
1F
100
AcDbEntity
  8
0
370
    30
100
AcDbPolyline
 90
        4
 70
     1
 43
0.0
 10
678.0493269383737
 20
117.3629090083178
 10
704.4669327153624
 20
117.3629090083178
 10
704.4669327153624
 20
210.7975415989996
 10
678.0493269383737
 20
210.7975415989996
  0
LEADER
  5
1711
330
1F
100
AcDbEntity
  8
0
100
AcDbLeader
  3
Vad-style
 76
     3
 10
688.4778385396193
 20
210.6502182862661
 30
0.0
 10
676.9955153092951
 20
225.9655767451485
 30
0.0
 10
617.4805671640951
 20
225.9655767451485
 30
0.0
1001
ACAD
1000
DSTYLE
1002
{
1070
    41
1040
6.0
1070
   140
1040
6.0
1002
}
  0
TEXT
  5
1712
330
1F
100
AcDbEntity
  8
0
 62
     1
100
AcDbText
 10
617.9406251437467
 20
227.311087353491
 30
0.0
 40
4.0
  1
MOUNTING PLATE
 41
1.199999999999999
 51
5.0
  7
Demo
100
AcDbText
  0
SPLINE
  5
1889
330
1F
100
AcDbEntity
  8
0
370
    30
100
AcDbSpline
210
0.0
220
0.0
230
1.0
 70
    24
 71
     1
 72
     4
 73
     2
 74
     0
 42
0.0000000001
 43
0.0000000001
 40
0.0
 40
0.0
 40
1.0
 40
1.0
 10
675.2993269532749
 20
167.3629078907307
 30
0.0
 10
675.2993269532749
 20
168.8629072052773
 30
0.0
  0
SPLINE
  5
188A
330
1F
100
AcDbEntity
  8
0
370
    30
100
AcDbSpline
210
0.0
220
0.0
230
1.0
 70
    24
 71
     1
 72
     4
 73
     2
 74
     0
 42
0.0000000001
 43
0.0000000001
 40
0.0
 40
0.0
 40
1.0
 40
1.0
 10
663.7993278622457
 20
168.8629072052773
 30
0.0
 10
663.7993278622457
 20
167.3629078907307
 30
0.0
  0
SPLINE
  5
188B
330
1F
100
AcDbEntity
  8
0
370
    30
100
AcDbSpline
210
0.0
220
0.0
230
1.0
 70
    24
 71
     1
 72
     4
 73
     2
 74
     0
 42
0.0000000001
 43
0.0000000001
 40
0.0
 40
0.0
 40
1.0
 40
1.0
 10
674.5493272960016
 20
168.8629072052773
 30
0.0
 10
674.5493272960016
 20
170.3629102451142
 30
0.0
  0
SPLINE
  5
188C
330
1F
100
AcDbEntity
  8
0
370
    30
100
AcDbSpline
210
0.0
220
0.0
230
1.0
 70
    24
 71
     1
 72
     4
 73
     2
 74
     0
 42
0.0000000001
 43
0.0000000001
 40
0.0
 40
0.0
 40
1.0
 40
1.0
 10
664.549327519519
 20
170.3629102451142
 30
0.0
 10
664.549327519519
 20
168.8629072052773
 30
0.0
  0
SPLINE
  5
188D
330
1F
100
AcDbEntity
  8
0
370
    30
100
AcDbSpline
210
0.0
220
0.0
230
1.0
 70
    24
 71
     1
 72
     4
 73
     2
 74
     0
 42
0.0000000001
 43
0.0000000001
 40
0.0
 40
0.0
 40
1.0
 40
1.0
 10
664.549327519519
 20
172.3629105729397
 30
0.0
 10
665.4079063504764
 20
171.5043317419823
 30
0.0
  0
SPLINE
  5
188E
330
1F
100
AcDbEntity
  8
0
370
    30
100
AcDbSpline
210
0.0
220
0.0
230
1.0
 70
    24
 71
     1
 72
     4
 73
     2
 74
     0
 42
0.0000000001
 43
0.0000000001
 40
0.0
 40
0.0
 40
1.0
 40
1.0
 10
673.6907484650441
 20
171.5043317419823
 30
0.0
 10
674.5493272960016
 20
172.3629105729397
 30
0.0
  0
SPLINE
  5
188F
330
1F
100
AcDbEntity
  8
0
370
    30
100
AcDbSpline
210
0.0
220
0.0
230
1.0
 70
    24
 71
     1
 72
     4
 73
     2
 74
     0
 42
0.0000000001
 43
0.0000000001
 40
0.0
 40
0.0
 40
1.0
 40
1.0
 10
674.5493272960016
 20
170.3629102451142
 30
0.0
 10
673.6907484650441
 20
171.2214890760716
 30
0.0
  0
SPLINE
  5
1890
330
1F
100
AcDbEntity
  8
0
370
    30
100
AcDbSpline
210
0.0
220
0.0
230
1.0
 70
    24
 71
     1
 72
     4
 73
     2
 74
     0
 42
0.0000000001
 43
0.0000000001
 40
0.0
 40
0.0
 40
1.0
 40
1.0
 10
665.4079063504764
 20
171.2214890760716
 30
0.0
 10
664.549327519519
 20
170.3629102451142
 30
0.0
  0
SPLINE
  5
1891
330
1F
100
AcDbEntity
  8
0
370
    30
100
AcDbSpline
210
0.0
220
0.0
230
1.0
 70
    24
 71
     1
 72
     4
 73
     2
 74
     0
 42
0.0000000001
 43
0.0000000001
 40
0.0
 40
0.0
 40
1.0
 40
1.0
 10
674.5493272960016
 20
172.3629105729397
 30
0.0
 10
674.5493272960016
 20
176.0629061502751
 30
0.0
  0
SPLINE
  5
1892
330
1F
100
AcDbEntity
  8
0
370
    30
100
AcDbSpline
210
0.0
220
0.0
230
1.0
 70
    24
 71
     1
 72
     4
 73
     2
 74
     0
 42
0.0000000001
 43
0.0000000001
 40
0.0
 40
0.0
 40
1.0
 40
1.0
 10
664.549327519519
 20
176.0629061502751
 30
0.0
 10
664.549327519519
 20
172.3629105729397
 30
0.0
  0
ARC
  5
1893
330
1F
100
AcDbEntity
  8
0
370
    30
100
AcDbCircle
 10
674.0493273382767
 20
177.0629087374109
 30
0.0
 40
0.5
100
AcDbArc
 50
270.0
 51
89.99999999999674
  0
ARC
  5
1894
330
1F
100
AcDbEntity
  8
0
370
    30
100
AcDbCircle
 10
665.0493273382767
 20
177.0629087374109
 30
0.0
 40
0.5
100
AcDbArc
 50
90.0
 51
270.0
  0
SPLINE
  5
1895
330
1F
100
AcDbEntity
  8
0
370
    30
100
AcDbSpline
210
0.0
220
0.0
230
1.0
 70
    24
 71
     1
 72
     4
 73
     2
 74
     0
 42
0.0000000001
 43
0.0000000001
 40
0.0
 40
0.0
 40
1.0
 40
1.0
 10
674.0493272140452
 20
177.562909190112
 30
0.0
 10
674.0493272140452
 20
177.962908510619
 30
0.0
  0
SPLINE
  5
1896
330
1F
100
AcDbEntity
  8
0
370
    30
100
AcDbSpline
210
0.0
220
0.0
230
1.0
 70
    24
 71
     1
 72
     4
 73
     2
 74
     0
 42
0.0000000001
 43
0.0000000001
 40
0.0
 40
0.0
 40
1.0
 40
1.0
 10
665.0493266701528
 20
177.962908510619
 30
0.0
 10
665.0493266701528
 20
177.562909190112
 30
0.0
  0
SPLINE
  5
1897
330
1F
100
AcDbEntity
  8
0
370
    30
100
AcDbSpline
210
0.0
220
0.0
230
1.0
 70
    24
 71
     1
 72
     4
 73
     2
 74
     0
 42
0.0000000001
 43
0.0000000001
 40
0.0
 40
0.0
 40
1.0
 40
1.0
 10
674.0493272140452
 20
177.962908510619
 30
0.0
 10
673.9493273839184
 20
178.062910203391
 30
0.0
  0
SPLINE
  5
1898
330
1F
100
AcDbEntity
  8
0
370
    30
100
AcDbSpline
210
0.0
220
0.0
230
1.0
 70
    24
 71
     1
 72
     4
 73
     2
 74
     0
 42
0.0000000001
 43
0.0000000001
 40
0.0
 40
0.0
 40
1.0
 40
1.0
 10
665.1493265002796
 20
178.062910203391
 30
0.0
 10
665.0493266701528
 20
177.962908510619
 30
0.0
  0
SPLINE
  5
1899
330
1F
100
AcDbEntity
  8
0
370
    30
100
AcDbSpline
210
0.0
220
0.0
230
1.0
 70
    24
 71
     1
 72
     4
 73
     2
 74
     0
 42
0.0000000001
 43
0.0000000001
 40
0.0
 40
0.0
 40
1.0
 40
1.0
 10
674.0493272140452
 20
176.0629061502751
 30
0.0
 10
674.0493272140452
 20
176.5629071635541
 30
0.0
  0
SPLINE
  5
189A
330
1F
100
AcDbEntity
  8
0
370
    30
100
AcDbSpline
210
0.0
220
0.0
230
1.0
 70
    24
 71
     1
 72
     4
 73
     2
 74
     0
 42
0.0000000001
 43
0.0000000001
 40
0.0
 40
0.0
 40
1.0
 40
1.0
 10
665.0493266701528
 20
176.5629071635541
 30
0.0
 10
665.0493266701528
 20
176.0629061502751
 30
0.0
  0
ARC
  5
189B
330
1F
100
AcDbEntity
  8
0
370
    30
100
AcDbCircle
 10
673.8321700507513
 20
171.3629087374109
 30
0.0
 40
0.1999999999999996
100
AcDbArc
 50
134.9999999999977
 51
224.9999999999977
  0
ARC
  5
189C
330
1F
100
AcDbEntity
  8
0
370
    30
100
AcDbCircle
 10
665.2664846258021
 20
171.3629087374109
 30
0.0
 40
0.2000000000000096
100
AcDbArc
 50
315.0000000000023
 51
45.0
  0
LINE
  5
189D
330
1F
100
AcDbEntity
  8
0
370
    30
100
AcDbLine
 10
669.5493264764377
 20
168.8629072052773
 30
0.0
 11
663.7993278622457
 21
168.8629072052773
 31
0.0
  0
LINE
  5
189E
330
1F
100
AcDbEntity
  8
0
370
    30
100
AcDbLine
 10
675.2993269532749
 20
168.8629072052773
 30
0.0
 11
669.5493264764377
 21
168.8629072052773
 31
0.0
  0
LINE
  5
189F
330
1F
100
AcDbEntity
  8
0
370
    30
100
AcDbLine
 10
669.5493264764377
 20
170.3629102451142
 30
0.0
 11
664.549327519519
 21
170.3629102451142
 31
0.0
  0
LINE
  5
18A0
330
1F
100
AcDbEntity
  8
0
370
    30
100
AcDbLine
 10
674.5493272960016
 20
170.3629102451142
 30
0.0
 11
669.5493264764377
 21
170.3629102451142
 31
0.0
  0
LINE
  5
18A1
330
1F
100
AcDbEntity
  8
0
370
    30
100
AcDbLine
 10
669.5493264764377
 20
172.3629105729397
 30
0.0
 11
664.549327519519
 21
172.3629105729397
 31
0.0
  0
LINE
  5
18A2
330
1F
100
AcDbEntity
  8
0
370
    30
100
AcDbLine
 10
674.5493272960016
 20
172.3629105729397
 30
0.0
 11
669.5493264764377
 21
172.3629105729397
 31
0.0
  0
LINE
  5
18A3
330
1F
100
AcDbEntity
  8
0
370
    30
100
AcDbLine
 10
669.5493264764377
 20
176.0629061502751
 30
0.0
 11
664.549327519519
 21
176.0629061502751
 31
0.0
  0
LINE
  5
18A4
330
1F
100
AcDbEntity
  8
0
370
    30
100
AcDbLine
 10
674.5493272960016
 20
176.0629061502751
 30
0.0
 11
669.5493264764377
 21
176.0629061502751
 31
0.0
  0
LINE
  5
18A5
330
1F
100
AcDbEntity
  8
0
370
    30
100
AcDbLine
 10
669.5493264764377
 20
176.5629071635541
 30
0.0
 11
665.0493266701528
 21
176.5629071635541
 31
0.0
  0
LINE
  5
18A6
330
1F
100
AcDbEntity
  8
0
370
    30
100
AcDbLine
 10
674.0493272140452
 20
176.5629071635541
 30
0.0
 11
669.5493264764377
 21
176.5629071635541
 31
0.0
  0
LINE
  5
18A7
330
1F
100
AcDbEntity
  8
0
370
    30
100
AcDbLine
 10
669.5493264764377
 20
177.562909190112
 30
0.0
 11
665.0493266701528
 21
177.562909190112
 31
0.0
  0
LINE
  5
18A8
330
1F
100
AcDbEntity
  8
0
370
    30
100
AcDbLine
 10
674.0493272140452
 20
177.562909190112
 30
0.0
 11
669.5493264764377
 21
177.562909190112
 31
0.0
  0
LINE
  5
18A9
330
1F
100
AcDbEntity
  8
0
370
    30
100
AcDbLine
 10
674.0493272140452
 20
177.962908510619
 30
0.0
 11
665.0493266701528
 21
177.962908510619
 31
0.0
  0
LINE
  5
18AA
330
1F
100
AcDbEntity
  8
0
370
    30
100
AcDbLine
 10
665.1493265002796
 20
178.062910203391
 30
0.0
 11
673.9493273839184
 21
178.062910203391
 31
0.0
  0
LINE
  5
18AB
330
1F
100
AcDbEntity
  8
0
370
    30
100
AcDbLine
 10
675.0493273779579
 20
167.4429084998902
 30
0.0
 11
675.0493273779579
 21
167.3629078907307
 31
0.0
  0
LINE
  5
18AC
330
1F
100
AcDbEntity
  8
0
370
    30
100
AcDbLine
 10
674.0493272140451
 20
167.3629078907307
 30
0.0
 11
674.0493272140451
 21
167.4429084998902
 31
0.0
  0
LINE
  5
18AD
330
1F
100
AcDbEntity
  8
0
370
    30
100
AcDbLine
 10
674.0493272140451
 20
167.4429084998902
 30
0.0
 11
675.0493273779579
 21
167.4429084998902
 31
0.0
  0
LINE
  5
18AE
330
1F
100
AcDbEntity
  8
0
370
    30
100
AcDbLine
 10
666.0493268340655
 20
167.4429084998902
 30
0.0
 11
666.0493268340655
 21
167.3629078907307
 31
0.0
  0
LINE
  5
18AF
330
1F
100
AcDbEntity
  8
0
370
    30
100
AcDbLine
 10
666.0493268340655
 20
167.4429084998902
 30
0.0
 11
674.0493272140451
 21
167.4429084998902
 31
0.0
  0
LINE
  5
18B0
330
1F
100
AcDbEntity
  8
0
370
    30
100
AcDbLine
 10
665.0493266701527
 20
167.3629078907307
 30
0.0
 11
665.0493266701527
 21
167.4429084998902
 31
0.0
  0
LINE
  5
18B1
330
1F
100
AcDbEntity
  8
0
370
    30
100
AcDbLine
 10
665.0493266701527
 20
167.4429084998902
 30
0.0
 11
666.0493268340655
 21
167.4429084998902
 31
0.0
  0
LINE
  5
18B2
330
1F
100
AcDbEntity
  8
0
370
    30
100
AcDbLine
 10
665.5493276834317
 20
117.3629090083178
 30
0.0
 11
673.5493271320887
 21
117.3629090083178
 31
0.0
  0
LINE
  5
18B4
102
{ACAD_REACTORS
330
1CB9
102
}
330
1F
100
AcDbEntity
  8
0
370
    30
100
AcDbLine
 10
661.5493270277806
 20
121.3629087326463
 30
0.0
 11
661.5493270277806
 21
163.3629072350796
 31
0.0
  0
LINE
  5
18B5
330
1F
100
AcDbEntity
  8
0
370
    30
100
AcDbLine
 10
661.5493270277806
 20
163.3629072350796
 30
0.0
 11
678.0493269383736
 21
163.3629072350796
 31
0.0
  0
LINE
  5
18B6
330
1F
100
AcDbEntity
  8
0
370
    30
100
AcDbLine
 10
677.5493277877399
 20
125.3629084569749
 30
0.0
 11
677.5493277877398
 21
159.3629103047188
 31
0.0
  0
LINE
  5
18B7
330
1F
100
AcDbEntity
  8
0
370
    30
100
AcDbLine
 10
678.0493269383736
 20
163.3629072350796
 30
0.0
 11
678.0493269383736
 21
159.3629103047188
 31
0.0
  0
LINE
  5
18B8
330
1F
100
AcDbEntity
  8
0
370
    30
100
AcDbLine
 10
678.0493269383736
 20
159.3629103047188
 30
0.0
 11
677.5493277877398
 21
159.3629103047188
 31
0.0
  0
LINE
  5
18B9
330
1F
100
AcDbEntity
  8
0
370
    30
100
AcDbLine
 10
661.5493270277806
 20
163.3629072350796
 30
0.0
 11
661.5493270277806
 21
167.3629078907307
 31
0.0
  0
LINE
  5
18BA
330
1F
100
AcDbEntity
  8
0
370
    30
100
AcDbLine
 10
661.5493270277806
 20
167.3629078907307
 30
0.0
 11
678.0493269383736
 21
167.3629078907307
 31
0.0
  0
LINE
  5
18BB
330
1F
100
AcDbEntity
  8
0
370
    30
100
AcDbLine
 10
678.0493269383736
 20
167.3629078907307
 30
0.0
 11
678.0493269383736
 21
163.3629072350796
 31
0.0
  0
LINE
  5
18BC
102
{ACAD_REACTORS
330
1CB9
102
}
330
1F
100
AcDbEntity
  8
0
370
    30
100
AcDbLine
 10
673.5493271320887
 20
117.3629090083178
 30
0.0
 11
677.5493277877398
 21
117.3629090083178
 31
0.0
  0
LINE
  5
18BD
102
{ACAD_REACTORS
330
1CB9
102
}
330
1F
100
AcDbEntity
  8
0
370
    30
100
AcDbLine
 10
673.5493271320887
 20
117.3629090083178
 30
0.0
 11
665.5493276834317
 21
117.3629090083178
 31
0.0
  0
LINE
  5
18BE
102
{ACAD_REACTORS
330
1CB9
102
}
330
1F
100
AcDbEntity
  8
0
370
    30
100
AcDbLine
 10
661.5493270277806
 20
117.3629090083178
 30
0.0
 11
665.5493276834317
 21
117.3629090083178
 31
0.0
  0
LINE
  5
18BF
102
{ACAD_REACTORS
330
1CB9
102
}
330
1F
100
AcDbEntity
  8
0
370
    30
100
AcDbLine
 10
661.5493270277806
 20
117.3629090083178
 30
0.0
 11
661.5493270277806
 21
121.3629087326463
 31
0.0
  0
LINE
  5
18C1
102
{ACAD_REACTORS
330
1CB9
102
}
330
1F
100
AcDbEntity
  8
0
370
    30
100
AcDbLine
 10
678.0493269383737
 20
125.3629084569749
 30
0.0
 11
677.5493277877399
 21
125.3629084569749
 31
0.0
  0
LINE
  5
18C2
102
{ACAD_REACTORS
330
1CB9
102
}
330
1F
100
AcDbEntity
  8
0
370
    30
100
AcDbLine
 10
678.0493269383737
 20
125.3629084569749
 30
0.0
 11
678.0493269383737
 21
117.3629090083178
 31
0.0
  0
LINE
  5
18C3
102
{ACAD_REACTORS
330
1CB9
102
}
330
1F
100
AcDbEntity
  8
0
370
    30
100
AcDbLine
 10
678.0493269383737
 20
117.3629090083178
 30
0.0
 11
677.5493277877399
 21
117.3629090083178
 31
0.0
  0
LINE
  5
18C4
330
1F
100
AcDbEntity
  8
0
370
    30
100
AcDbLine
 10
665.4079063504764
 20
171.5043317419823
 30
0.0
 11
673.6907484650441
 21
171.5043317419823
 31
0.0
  0
LINE
  5
18C5
330
1F
100
AcDbEntity
  8
0
370
    30
100
AcDbLine
 10
669.5493264764377
 20
171.2214890760716
 30
0.0
 11
665.4079063504764
 21
171.2214890760716
 31
0.0
  0
LINE
  5
18C6
330
1F
100
AcDbEntity
  8
0
370
    30
100
AcDbLine
 10
673.6907484650441
 20
171.2214890760716
 30
0.0
 11
669.5493264764377
 21
171.2214890760716
 31
0.0
  0
DIMENSION
  5
18C8
330
1F
100
AcDbEntity
  8
0
100
AcDbDimension
  2
*D14
 10
641.5799290314116
 20
178.062910203391
 30
0.0
 11
641.5799290314116
 21
147.96710059544
 31
0.0
 70
   160
 71
     2
 42
60.70000119507312
  3
ISO-25
100
AcDbAlignedDimension
 13
661.5493273382767
 23
117.3629090083178
 33
0.0
 14
665.1493265002796
 24
178.062910203391
 34
0.0
 50
270.0
100
AcDbRotatedDimension
  0
DIMENSION
  5
1963
330
1F
100
AcDbEntity
  8
0
100
AcDbDimension
  2
*D15
 10
661.5493270277806
 20
192.9157028423806
 30
0.0
 11
669.7993269830771
 21
196.249036175714
 31
0.0
 70
    32
 71
     5
 42
16.49999991059303
  3
ISO-25
100
AcDbAlignedDimension
 13
678.0493269383736
 23
167.3629078907307
 33
0.0
 14
661.5493270277806
 24
167.3629078907307
 34
0.0
100
AcDbRotatedDimension
  0
DIMENSION
  5
1970
330
1F
100
AcDbEntity
  8
0
100
AcDbDimension
  2
*D16
 10
678.0493269383736
 20
149.8519229590501
 30
0.0
 11
691.0493269383736
 21
153.1852562923834
 31
0.0
 70
    32
 71
     5
 42
0.499999150633812
  3
ISO-25
100
AcDbAlignedDimension
 13
677.5493277877398
 23
159.3629103047188
 33
0.0
 14
678.0493269383736
 24
159.3629103047188
 34
0.0
100
AcDbRotatedDimension
  0
LINE
  5
19B4
330
1F
100
AcDbEntity
  8
0
  6
CENTER
 62
     4
100
AcDbLine
 10
669.5493264764377
 20
167.3629078907307
 30
0.0
 11
669.5493264764377
 21
179.062910203391
 31
0.0
  0
SPLINE
  5
19B5
330
1F
100
AcDbEntity
  8
0
370
    30
100
AcDbSpline
210
0.0
220
0.0
230
1.0
 70
    24
 71
     1
 72
     4
 73
     2
 74
     0
 42
0.0000000001
 43
0.0000000001
 40
0.0
 40
0.0
 40
1.0
 40
1.0
 10
802.9436633272364
 20
186.2435005059441
 30
0.0
 10
802.9436633272364
 20
187.7434998204907
 30
0.0
  0
SPLINE
  5
19B6
330
1F
100
AcDbEntity
  8
0
370
    30
100
AcDbSpline
210
0.0
220
0.0
230
1.0
 70
    24
 71
     1
 72
     4
 73
     2
 74
     0
 42
0.0000000001
 43
0.0000000001
 40
0.0
 40
0.0
 40
1.0
 40
1.0
 10
791.4436633048848
 20
187.7434998204907
 30
0.0
 10
791.4436633048848
 20
186.2435005059441
 30
0.0
  0
SPLINE
  5
19B7
330
1F
100
AcDbEntity
  8
0
370
    30
100
AcDbSpline
210
0.0
220
0.0
230
1.0
 70
    24
 71
     1
 72
     4
 73
     2
 74
     0
 42
0.0000000001
 43
0.0000000001
 40
0.0
 40
0.0
 40
1.0
 40
1.0
 10
802.1936632043018
 20
189.2435028603275
 30
0.0
 10
801.3350848390057
 20
190.102081691285
 30
0.0
  0
SPLINE
  5
19B8
330
1F
100
AcDbEntity
  8
0
370
    30
100
AcDbSpline
210
0.0
220
0.0
230
1.0
 70
    24
 71
     1
 72
     4
 73
     2
 74
     0
 42
0.0000000001
 43
0.0000000001
 40
0.0
 40
0.0
 40
1.0
 40
1.0
 10
793.0522417931155
 20
190.102081691285
 30
0.0
 10
792.1936629621581
 20
189.2435028603275
 30
0.0
  0
SPLINE
  5
19B9
330
1F
100
AcDbEntity
  8
0
370
    30
100
AcDbSpline
210
0.0
220
0.0
230
1.0
 70
    24
 71
     1
 72
     4
 73
     2
 74
     0
 42
0.0000000001
 43
0.0000000001
 40
0.0
 40
0.0
 40
1.0
 40
1.0
 10
792.1936629621581
 20
191.2435031881531
 30
0.0
 10
793.0522417931155
 20
190.3849243571957
 30
0.0
  0
SPLINE
  5
19BA
330
1F
100
AcDbEntity
  8
0
370
    30
100
AcDbSpline
210
0.0
220
0.0
230
1.0
 70
    24
 71
     1
 72
     4
 73
     2
 74
     0
 42
0.0000000001
 43
0.0000000001
 40
0.0
 40
0.0
 40
1.0
 40
1.0
 10
801.3350848390057
 20
190.3849243571957
 30
0.0
 10
802.1936632043018
 20
191.2435031881531
 30
0.0
  0
SPLINE
  5
19BB
330
1F
100
AcDbEntity
  8
0
370
    30
100
AcDbSpline
210
0.0
220
0.0
230
1.0
 70
    24
 71
     1
 72
     4
 73
     2
 74
     0
 42
0.0000000001
 43
0.0000000001
 40
0.0
 40
0.0
 40
1.0
 40
1.0
 10
802.1936632043018
 20
187.7434998204907
 30
0.0
 10
802.1936632043018
 20
189.2435028603275
 30
0.0
  0
SPLINE
  5
19BC
330
1F
100
AcDbEntity
  8
0
370
    30
100
AcDbSpline
210
0.0
220
0.0
230
1.0
 70
    24
 71
     1
 72
     4
 73
     2
 74
     0
 42
0.0000000001
 43
0.0000000001
 40
0.0
 40
0.0
 40
1.0
 40
1.0
 10
792.1936629621581
 20
189.2435028603275
 30
0.0
 10
792.1936629621581
 20
187.7434998204907
 30
0.0
  0
SPLINE
  5
19BD
330
1F
100
AcDbEntity
  8
0
370
    30
100
AcDbSpline
210
0.0
220
0.0
230
1.0
 70
    24
 71
     1
 72
     4
 73
     2
 74
     0
 42
0.0000000001
 43
0.0000000001
 40
0.0
 40
0.0
 40
1.0
 40
1.0
 10
802.1936632043018
 20
191.2435031881531
 30
0.0
 10
802.1936632043018
 20
194.9434987654884
 30
0.0
  0
SPLINE
  5
19BE
330
1F
100
AcDbEntity
  8
0
370
    30
100
AcDbSpline
210
0.0
220
0.0
230
1.0
 70
    24
 71
     1
 72
     4
 73
     2
 74
     0
 42
0.0000000001
 43
0.0000000001
 40
0.0
 40
0.0
 40
1.0
 40
1.0
 10
792.1936629621581
 20
194.9434987654884
 30
0.0
 10
792.1936629621581
 20
191.2435031881531
 30
0.0
  0
ARC
  5
19BF
330
1F
100
AcDbEntity
  8
0
370
    30
100
AcDbCircle
 10
801.6936633942917
 20
195.9435013526242
 30
0.0
 40
0.5
100
AcDbArc
 50
270.0
 51
90.0
  0
ARC
  5
19C0
330
1F
100
AcDbEntity
  8
0
370
    30
100
AcDbCircle
 10
792.6936633942919
 20
195.9435013526242
 30
0.0
 40
0.5
100
AcDbArc
 50
90.00000000000651
 51
270.0
  0
SPLINE
  5
19C1
330
1F
100
AcDbEntity
  8
0
370
    30
100
AcDbSpline
210
0.0
220
0.0
230
1.0
 70
    24
 71
     1
 72
     4
 73
     2
 74
     0
 42
0.0000000001
 43
0.0000000001
 40
0.0
 40
0.0
 40
1.0
 40
1.0
 10
801.6936635880067
 20
196.8435011258324
 30
0.0
 10
801.5936632922187
 20
196.9435028186043
 30
0.0
  0
SPLINE
  5
19C2
330
1F
100
AcDbEntity
  8
0
370
    30
100
AcDbSpline
210
0.0
220
0.0
230
1.0
 70
    24
 71
     1
 72
     4
 73
     2
 74
     0
 42
0.0000000001
 43
0.0000000001
 40
0.0
 40
0.0
 40
1.0
 40
1.0
 10
792.7936638055638
 20
196.9435028186043
 30
0.0
 10
792.6936630441145
 20
196.8435011258324
 30
0.0
  0
SPLINE
  5
19C3
330
1F
100
AcDbEntity
  8
0
370
    30
100
AcDbSpline
210
0.0
220
0.0
230
1.0
 70
    24
 71
     1
 72
     4
 73
     2
 74
     0
 42
0.0000000001
 43
0.0000000001
 40
0.0
 40
0.0
 40
1.0
 40
1.0
 10
801.6936635880067
 20
196.4435018053253
 30
0.0
 10
801.6936635880067
 20
196.8435011258324
 30
0.0
  0
SPLINE
  5
19C4
330
1F
100
AcDbEntity
  8
0
370
    30
100
AcDbSpline
210
0.0
220
0.0
230
1.0
 70
    24
 71
     1
 72
     4
 73
     2
 74
     0
 42
0.0000000001
 43
0.0000000001
 40
0.0
 40
0.0
 40
1.0
 40
1.0
 10
792.6936630441145
 20
196.8435011258324
 30
0.0
 10
792.6936630441145
 20
196.4435018053253
 30
0.0
  0
SPLINE
  5
19C5
330
1F
100
AcDbEntity
  8
0
370
    30
100
AcDbSpline
210
0.0
220
0.0
230
1.0
 70
    24
 71
     1
 72
     4
 73
     2
 74
     0
 42
0.0000000001
 43
0.0000000001
 40
0.0
 40
0.0
 40
1.0
 40
1.0
 10
801.6936635880067
 20
194.9434987654884
 30
0.0
 10
801.6936635880067
 20
195.4434997787674
 30
0.0
  0
SPLINE
  5
19C6
330
1F
100
AcDbEntity
  8
0
370
    30
100
AcDbSpline
210
0.0
220
0.0
230
1.0
 70
    24
 71
     1
 72
     4
 73
     2
 74
     0
 42
0.0000000001
 43
0.0000000001
 40
0.0
 40
0.0
 40
1.0
 40
1.0
 10
792.6936630441145
 20
195.4434997787674
 30
0.0
 10
792.6936630441145
 20
194.9434987654884
 30
0.0
  0
ARC
  5
19C7
330
1F
100
AcDbEntity
  8
0
370
    30
100
AcDbCircle
 10
801.4765061067665
 20
190.2435013526243
 30
0.0
 40
0.1999999999999996
100
AcDbArc
 50
134.9999999999956
 51
224.9999999999952
  0
ARC
  5
19C8
330
1F
100
AcDbEntity
  8
0
370
    30
100
AcDbCircle
 10
792.9108206818171
 20
190.2435013526243
 30
0.0
 40
0.1999999999999895
100
AcDbArc
 50
314.9999999999956
 51
45.00000000000897
  0
LINE
  5
19C9
330
1F
100
AcDbEntity
  8
0
370
    30
100
AcDbLine
 10
802.9436633272364
 20
187.7434998204907
 30
0.0
 11
791.4436633048848
 21
187.7434998204907
 31
0.0
  0
LINE
  5
19CA
330
1F
100
AcDbEntity
  8
0
370
    30
100
AcDbLine
 10
802.1936632043018
 20
189.2435028603275
 30
0.0
 11
792.1936629621581
 21
189.2435028603275
 31
0.0
  0
LINE
  5
19CB
330
1F
100
AcDbEntity
  8
0
370
    30
100
AcDbLine
 10
802.1936632043018
 20
191.2435031881531
 30
0.0
 11
792.1936629621581
 21
191.2435031881531
 31
0.0
  0
LINE
  5
19CC
330
1F
100
AcDbEntity
  8
0
370
    30
100
AcDbLine
 10
802.1936632043018
 20
194.9434987654884
 30
0.0
 11
792.1936629621581
 21
194.9434987654884
 31
0.0
  0
LINE
  5
19CD
330
1F
100
AcDbEntity
  8
0
370
    30
100
AcDbLine
 10
801.6936635880067
 20
195.4434997787674
 30
0.0
 11
792.6936630441145
 21
195.4434997787674
 31
0.0
  0
LINE
  5
19CE
330
1F
100
AcDbEntity
  8
0
370
    30
100
AcDbLine
 10
801.6936635880067
 20
196.4435018053253
 30
0.0
 11
792.6936630441145
 21
196.4435018053253
 31
0.0
  0
LINE
  5
19CF
330
1F
100
AcDbEntity
  8
0
370
    30
100
AcDbLine
 10
801.6936635880067
 20
196.8435011258324
 30
0.0
 11
792.6936630441145
 21
196.8435011258324
 31
0.0
  0
LINE
  5
19D0
330
1F
100
AcDbEntity
  8
0
370
    30
100
AcDbLine
 10
792.7936638055638
 20
196.9435028186043
 30
0.0
 11
801.5936632922187
 21
196.9435028186043
 31
0.0
  0
LINE
  5
19D8
330
1F
100
AcDbEntity
  8
0
370
    30
100
AcDbLine
 10
828.4023633508279
 20
176.1848031928738
 30
0.0
 11
828.5936625955894
 21
175.9935020854672
 31
0.0
  0
LINE
  5
19D9
330
1F
100
AcDbEntity
  8
0
370
    30
100
AcDbLine
 10
828.4023633508279
 20
176.1848031928738
 30
0.0
 11
828.4023633508279
 21
176.3022019913395
 31
0.0
  0
LINE
  5
19DA
330
1F
100
AcDbEntity
  8
0
370
    30
100
AcDbLine
 10
828.4023633508279
 20
176.3022019913395
 30
0.0
 11
828.5936625955894
 21
176.4935030987461
 31
0.0
  0
LINE
  5
19DB
330
1F
100
AcDbEntity
  8
0
370
    30
100
AcDbLine
 10
828.5936625955894
 20
175.9935020854672
 30
0.0
 11
828.5936625955894
 21
176.4935030987461
 31
0.0
  0
LINE
  5
19DC
330
1F
100
AcDbEntity
  8
0
370
    30
100
AcDbLine
 10
827.7523616610363
 20
175.6935007324417
 30
0.0
 11
827.9436627684429
 21
175.6935007324417
 31
0.0
  0
ARC
  5
19DD
330
1F
100
AcDbEntity
  8
0
370
    30
100
AcDbCircle
 10
828.2436633942918
 20
175.6935013526243
 30
0.0
 40
0.4913009055030244
100
AcDbArc
 50
90.0
 51
180.0
  0
LINE
  5
19DE
330
1F
100
AcDbEntity
  8
0
370
    30
100
AcDbLine
 10
828.2436641214683
 20
176.1848031928738
 30
0.0
 11
828.2436641214683
 21
175.9935020854672
 31
0.0
  0
ARC
  5
19DF
330
1F
100
AcDbEntity
  8
0
370
    30
100
AcDbCircle
 10
828.2436633942918
 20
175.6935013526243
 30
0.0
 40
0.3000000000000114
100
AcDbArc
 50
90.0
 51
180.0
  0
LINE
  5
19E0
330
1F
100
AcDbEntity
  8
0
370
    30
100
AcDbLine
 10
827.7523616610363
 20
175.5348033657272
 30
0.0
 11
827.9436627684429
 21
175.3435022583206
 31
0.0
  0
LINE
  5
19E1
330
1F
100
AcDbEntity
  8
0
370
    30
100
AcDbLine
 10
827.7523616610363
 20
175.5348033657272
 30
0.0
 11
827.7523616610363
 21
175.6935007324417
 31
0.0
  0
LINE
  5
19E2
330
1F
100
AcDbEntity
  8
0
370
    30
100
AcDbLine
 10
827.9436627684429
 20
175.3435022583206
 30
0.0
 11
827.9436627684429
 21
175.6935007324417
 31
0.0
  0
LINE
  5
19E3
330
1F
100
AcDbEntity
  8
0
370
    30
100
AcDbLine
 10
827.6349647252157
 20
175.5348033657272
 30
0.0
 11
827.4436636178091
 21
175.3435022583206
 31
0.0
  0
LINE
  5
19E4
330
1F
100
AcDbEntity
  8
0
370
    30
100
AcDbLine
 10
827.6349647252157
 20
175.5348033657272
 30
0.0
 11
827.7523616610363
 21
175.5348033657272
 31
0.0
  0
LINE
  5
19E5
330
1F
100
AcDbEntity
  8
0
370
    30
100
AcDbLine
 10
827.4436636178091
 20
175.3435022583206
 30
0.0
 11
827.9436627684429
 21
175.3435022583206
 31
0.0
  0
LINE
  5
19E6
330
1F
100
AcDbEntity
  8
0
370
    30
100
AcDbLine
 10
827.6349647252157
 20
175.6935007324417
 30
0.0
 11
827.4436636178091
 21
175.6935007324417
 31
0.0
  0
LINE
  5
19E7
330
1F
100
AcDbEntity
  8
0
370
    30
100
AcDbLine
 10
827.6349647252157
 20
175.6935007324417
 30
0.0
 11
827.6349647252157
 21
175.5348033657272
 31
0.0
  0
LINE
  5
19E8
330
1F
100
AcDbEntity
  8
0
370
    30
100
AcDbLine
 10
827.4436636178091
 20
175.6935007324417
 30
0.0
 11
827.4436636178091
 21
175.3435022583206
 31
0.0
  0
LINE
  5
19E9
330
1F
100
AcDbEntity
  8
0
370
    30
100
AcDbLine
 10
826.9849648980692
 20
176.1848031928738
 30
0.0
 11
826.7936637906625
 21
175.9935020854672
 31
0.0
  0
LINE
  5
19EA
330
1F
100
AcDbEntity
  8
0
370
    30
100
AcDbLine
 10
826.9849648980692
 20
176.1848031928738
 30
0.0
 11
827.1436641274288
 21
176.1848031928738
 31
0.0
  0
LINE
  5
19EB
330
1F
100
AcDbEntity
  8
0
370
    30
100
AcDbLine
 10
827.1436641274288
 20
176.1848031928738
 30
0.0
 11
827.1436641274288
 21
175.9935020854672
 31
0.0
  0
LINE
  5
19EC
330
1F
100
AcDbEntity
  8
0
370
    30
100
AcDbLine
 10
826.7936637906625
 20
175.9935020854672
 30
0.0
 11
827.1436641274288
 21
175.9935020854672
 31
0.0
  0
LINE
  5
19ED
330
1F
100
AcDbEntity
  8
0
370
    30
100
AcDbLine
 10
827.1436641274288
 20
176.3022019913395
 30
0.0
 11
827.1436641274288
 21
176.4935030987461
 31
0.0
  0
LINE
  5
19EE
330
1F
100
AcDbEntity
  8
0
370
    30
100
AcDbLine
 10
827.1436641274288
 20
176.3022019913395
 30
0.0
 11
826.9849648980692
 21
176.3022019913395
 31
0.0
  0
LINE
  5
19EF
330
1F
100
AcDbEntity
  8
0
370
    30
100
AcDbLine
 10
826.9849648980692
 20
176.3022019913395
 30
0.0
 11
826.7936637906625
 21
176.4935030987461
 31
0.0
  0
LINE
  5
19F0
330
1F
100
AcDbEntity
  8
0
370
    30
100
AcDbLine
 10
827.1436641274288
 20
176.4935030987461
 30
0.0
 11
826.7936637906625
 21
176.4935030987461
 31
0.0
  0
LINE
  5
19F1
330
1F
100
AcDbEntity
  8
0
370
    30
100
AcDbLine
 10
827.6349647252157
 20
176.7935007264813
 30
0.0
 11
827.4436636178091
 21
176.7935007264813
 31
0.0
  0
ARC
  5
19F2
330
1F
100
AcDbEntity
  8
0
370
    30
100
AcDbCircle
 10
827.1436633942919
 20
176.7935013526244
 30
0.0
 40
0.4913009055030244
100
AcDbArc
 50
270.0
 51
0.0
  0
ARC
  5
19F3
330
1F
100
AcDbEntity
  8
0
370
    30
100
AcDbCircle
 10
827.1436633942919
 20
176.7935013526244
 30
0.0
 40
0.2999999999999971
100
AcDbArc
 50
270.0
 51
0.0
  0
LINE
  5
19F4
330
1F
100
AcDbEntity
  8
0
370
    30
100
AcDbLine
 10
827.6349647252157
 20
176.952201818486
 30
0.0
 11
827.4436636178091
 21
177.1435029258926
 31
0.0
  0
LINE
  5
19F5
330
1F
100
AcDbEntity
  8
0
370
    30
100
AcDbLine
 10
827.6349647252157
 20
176.952201818486
 30
0.0
 11
827.6349647252157
 21
176.7935007264813
 31
0.0
  0
LINE
  5
19F6
330
1F
100
AcDbEntity
  8
0
370
    30
100
AcDbLine
 10
827.4436636178091
 20
177.1435029258926
 30
0.0
 11
827.4436636178091
 21
176.7935007264813
 31
0.0
  0
CIRCLE
  5
19F7
330
1F
100
AcDbEntity
  8
0
370
    30
100
AcDbCircle
 10
827.6936633942918
 20
176.2435013526243
 30
0.0
 40
2.0
  0
LINE
  5
19F8
330
1F
100
AcDbEntity
  8
0
370
    30
100
AcDbLine
 10
826.7936637906625
 20
176.4935030987461
 30
0.0
 11
826.7936637906625
 21
175.9935020854672
 31
0.0
  0
ARC
  5
19F9
330
1F
100
AcDbEntity
  8
0
370
    30
100
AcDbCircle
 10
827.1436633942919
 20
175.6935013526243
 30
0.0
 40
0.3000000000000114
100
AcDbArc
 50
0.0
 51
90.0
  0
LINE
  5
19FA
330
1F
100
AcDbEntity
  8
0
370
    30
100
AcDbLine
 10
828.2436641214683
 20
175.9935020854672
 30
0.0
 11
828.5936625955894
 21
175.9935020854672
 31
0.0
  0
LINE
  5
19FB
330
1F
100
AcDbEntity
  8
0
370
    30
100
AcDbLine
 10
828.5936625955894
 20
176.4935030987461
 30
0.0
 11
828.2436641214683
 21
176.4935030987461
 31
0.0
  0
ARC
  5
19FC
330
1F
100
AcDbEntity
  8
0
370
    30
100
AcDbCircle
 10
828.2436633942918
 20
176.7935013526244
 30
0.0
 40
0.3000000000000114
100
AcDbArc
 50
180.0
 51
270.0
  0
LINE
  5
19FD
330
1F
100
AcDbEntity
  8
0
370
    30
100
AcDbLine
 10
827.9436627684429
 20
176.7935007264813
 30
0.0
 11
827.9436627684429
 21
177.1435029258926
 31
0.0
  0
LINE
  5
19FE
330
1F
100
AcDbEntity
  8
0
370
    30
100
AcDbLine
 10
827.9436627684429
 20
177.1435029258926
 30
0.0
 11
827.4436636178091
 21
177.1435029258926
 31
0.0
  0
ARC
  5
19FF
330
1F
100
AcDbEntity
  8
0
370
    30
100
AcDbCircle
 10
827.1436633942919
 20
175.6935013526243
 30
0.0
 40
0.4913009055030244
100
AcDbArc
 50
0.0
 51
90.0
  0
LINE
  5
1A00
330
1F
100
AcDbEntity
  8
0
370
    30
100
AcDbLine
 10
827.7523616610363
 20
176.952201818486
 30
0.0
 11
827.9436627684429
 21
177.1435029258926
 31
0.0
  0
LINE
  5
1A01
330
1F
100
AcDbEntity
  8
0
370
    30
100
AcDbLine
 10
827.7523616610363
 20
176.952201818486
 30
0.0
 11
827.6349647252157
 21
176.952201818486
 31
0.0
  0
LINE
  5
1A02
330
1F
100
AcDbEntity
  8
0
370
    30
100
AcDbLine
 10
826.9849648980692
 20
176.3022019913395
 30
0.0
 11
826.9849648980692
 21
176.1848031928738
 31
0.0
  0
LINE
  5
1A03
330
1F
100
AcDbEntity
  8
0
370
    30
100
AcDbLine
 10
828.2436641214683
 20
176.3022019913395
 30
0.0
 11
828.2436641214683
 21
176.4935030987461
 31
0.0
  0
ARC
  5
1A04
330
1F
100
AcDbEntity
  8
0
370
    30
100
AcDbCircle
 10
828.2436633942918
 20
176.7935013526244
 30
0.0
 40
0.4913009055030244
100
AcDbArc
 50
180.0
 51
270.0
  0
LINE
  5
1A05
330
1F
100
AcDbEntity
  8
0
370
    30
100
AcDbLine
 10
827.7523616610363
 20
176.7935007264813
 30
0.0
 11
827.9436627684429
 21
176.7935007264813
 31
0.0
  0
LINE
  5
1A06
330
1F
100
AcDbEntity
  8
0
370
    30
100
AcDbLine
 10
828.4023633508279
 20
176.3022019913395
 30
0.0
 11
828.2436641214683
 21
176.3022019913395
 31
0.0
  0
LINE
  5
1A07
330
1F
100
AcDbEntity
  8
0
370
    30
100
AcDbLine
 10
828.2436641214683
 20
176.1848031928738
 30
0.0
 11
828.4023633508279
 21
176.1848031928738
 31
0.0
  0
LINE
  5
1A08
330
1F
100
AcDbEntity
  8
0
370
    30
100
AcDbLine
 10
827.7523616610363
 20
176.7935007264813
 30
0.0
 11
827.7523616610363
 21
176.952201818486
 31
0.0
  0
ARC
  5
1A09
330
1F
100
AcDbEntity
  8
0
370
    30
100
AcDbCircle
 10
820.6436633942916
 20
183.2935013526243
 30
0.0
 40
0.2999999999999829
100
AcDbArc
 50
270.0
 51
0.0
  0
LINE
  5
1A0A
330
1F
100
AcDbEntity
  8
0
370
    30
100
AcDbLine
 10
820.6436630619958
 20
182.9935013702114
 30
0.0
 11
820.2936636565521
 21
182.9935013702114
 31
0.0
  0
LINE
  5
1A0B
330
1F
100
AcDbEntity
  8
0
370
    30
100
AcDbLine
 10
820.2936636565521
 20
182.9935013702114
 30
0.0
 11
820.2936636565521
 21
182.4935003569325
 31
0.0
  0
LINE
  5
1A0C
330
1F
100
AcDbEntity
  8
0
370
    30
100
AcDbLine
 10
820.2936636565521
 20
182.4935003569325
 30
0.0
 11
820.6436630619958
 21
182.4935003569325
 31
0.0
  0
ARC
  5
1A0D
330
1F
100
AcDbEntity
  8
0
370
    30
100
AcDbCircle
 10
820.6436633942916
 20
182.1935013526242
 30
0.0
 40
0.2999999999999971
100
AcDbArc
 50
0.0
 51
90.0
  0
LINE
  5
1A0E
330
1F
100
AcDbEntity
  8
0
370
    30
100
AcDbLine
 10
820.9436634836986
 20
182.1935027291973
 30
0.0
 11
820.9436634836986
 21
181.8435005297859
 31
0.0
  0
LINE
  5
1A0F
330
1F
100
AcDbEntity
  8
0
370
    30
100
AcDbLine
 10
820.9436634836986
 20
181.8435005297859
 30
0.0
 11
821.443663565655
 21
181.8435005297859
 31
0.0
  0
LINE
  5
1A10
330
1F
100
AcDbEntity
  8
0
370
    30
100
AcDbLine
 10
821.443663565655
 20
181.8435005297859
 30
0.0
 11
821.443663565655
 21
182.1935027291973
 31
0.0
  0
ARC
  5
1A11
330
1F
100
AcDbEntity
  8
0
370
    30
100
AcDbCircle
 10
821.7436633942917
 20
182.1935013526242
 30
0.0
 40
0.3000000000000114
100
AcDbArc
 50
90.0
 51
180.0
  0
LINE
  5
1A12
330
1F
100
AcDbEntity
  8
0
370
    30
100
AcDbLine
 10
821.7436630560353
 20
182.4935003569325
 30
0.0
 11
822.0936643241241
 21
182.4935003569325
 31
0.0
  0
LINE
  5
1A13
330
1F
100
AcDbEntity
  8
0
370
    30
100
AcDbLine
 10
822.0936643241241
 20
182.4935003569325
 30
0.0
 11
822.0936643241241
 21
182.9935013702114
 31
0.0
  0
LINE
  5
1A14
330
1F
100
AcDbEntity
  8
0
370
    30
100
AcDbLine
 10
822.0936643241241
 20
182.9935013702114
 30
0.0
 11
821.7436630560353
 21
182.9935013702114
 31
0.0
  0
ARC
  5
1A15
330
1F
100
AcDbEntity
  8
0
370
    30
100
AcDbCircle
 10
821.7436633942917
 20
183.2935013526243
 30
0.0
 40
0.3000000000000114
100
AcDbArc
 50
180.0
 51
270.0
  0
LINE
  5
1A16
330
1F
100
AcDbEntity
  8
0
370
    30
100
AcDbLine
 10
821.443663565655
 20
183.2935027232369
 30
0.0
 11
821.443663565655
 21
183.6435011973579
 31
0.0
  0
LINE
  5
1A17
330
1F
100
AcDbEntity
  8
0
370
    30
100
AcDbLine
 10
821.443663565655
 20
183.6435011973579
 30
0.0
 11
820.9436634836986
 21
183.6435011973579
 31
0.0
  0
LINE
  5
1A18
330
1F
100
AcDbEntity
  8
0
370
    30
100
AcDbLine
 10
820.9436634836986
 20
183.6435011973579
 30
0.0
 11
820.9436634836986
 21
183.2935027232369
 31
0.0
  0
CIRCLE
  5
1A19
330
1F
100
AcDbEntity
  8
0
370
    30
100
AcDbCircle
 10
821.1936633942917
 20
182.7435013526243
 30
0.0
 40
2.0
  0
LINE
  5
1A1A
330
1F
100
AcDbEntity
  8
0
370
    30
100
AcDbLine
 10
821.9023632167175
 20
182.6848014643391
 30
0.0
 11
822.0936643241241
 21
182.4935003569325
 31
0.0
  0
LINE
  5
1A1B
330
1F
100
AcDbEntity
  8
0
370
    30
100
AcDbLine
 10
821.9023632167175
 20
182.6848014643391
 30
0.0
 11
821.9023632167175
 21
182.8022002628048
 31
0.0
  0
LINE
  5
1A1C
330
1F
100
AcDbEntity
  8
0
370
    30
100
AcDbLine
 10
821.9023632167175
 20
182.8022002628048
 30
0.0
 11
822.0936643241241
 21
182.9935013702114
 31
0.0
  0
LINE
  5
1A1D
330
1F
100
AcDbEntity
  8
0
370
    30
100
AcDbLine
 10
821.7436630560353
 20
182.6848014643391
 30
0.0
 11
821.7436630560353
 21
182.4935003569325
 31
0.0
  0
LINE
  5
1A1E
330
1F
100
AcDbEntity
  8
0
370
    30
100
AcDbLine
 10
821.7436630560353
 20
182.6848014643391
 30
0.0
 11
821.9023632167175
 21
182.6848014643391
 31
0.0
  0
LINE
  5
1A1F
330
1F
100
AcDbEntity
  8
0
370
    30
100
AcDbLine
 10
821.2523624582484
 20
182.1935027291973
 30
0.0
 11
821.443663565655
 21
182.1935027291973
 31
0.0
  0
ARC
  5
1A20
330
1F
100
AcDbEntity
  8
0
370
    30
100
AcDbCircle
 10
821.7436633942917
 20
182.1935013526242
 30
0.0
 40
0.4913009055030102
100
AcDbArc
 50
89.99999999999349
 51
180.0
  0
LINE
  5
1A21
330
1F
100
AcDbEntity
  8
0
370
    30
100
AcDbLine
 10
820.6436630619958
 20
182.8022002628048
 30
0.0
 11
820.6436630619958
 21
182.9935013702114
 31
0.0
  0
LINE
  5
1A22
330
1F
100
AcDbEntity
  8
0
370
    30
100
AcDbLine
 10
820.6436630619958
 20
182.8022002628048
 30
0.0
 11
820.4849647639587
 21
182.8022002628048
 31
0.0
  0
LINE
  5
1A23
330
1F
100
AcDbEntity
  8
0
370
    30
100
AcDbLine
 10
820.4849647639587
 20
182.8022002628048
 30
0.0
 11
820.2936636565521
 21
182.9935013702114
 31
0.0
  0
LINE
  5
1A24
330
1F
100
AcDbEntity
  8
0
370
    30
100
AcDbLine
 10
821.1349645911052
 20
183.2935027232369
 30
0.0
 11
820.9436634836986
 21
183.2935027232369
 31
0.0
  0
ARC
  5
1A25
330
1F
100
AcDbEntity
  8
0
370
    30
100
AcDbCircle
 10
820.6436633942916
 20
183.2935013526243
 30
0.0
 40
0.4913009055030102
100
AcDbArc
 50
270.0
 51
0.0
  0
LINE
  5
1A26
330
1F
100
AcDbEntity
  8
0
370
    30
100
AcDbLine
 10
821.1349645911052
 20
183.4522000899513
 30
0.0
 11
820.9436634836986
 21
183.6435011973579
 31
0.0
  0
LINE
  5
1A27
330
1F
100
AcDbEntity
  8
0
370
    30
100
AcDbLine
 10
821.1349645911052
 20
183.4522000899513
 30
0.0
 11
821.1349645911052
 21
183.2935027232369
 31
0.0
  0
LINE
  5
1A28
330
1F
100
AcDbEntity
  8
0
370
    30
100
AcDbLine
 10
821.2523624582484
 20
182.0348016371925
 30
0.0
 11
821.443663565655
 21
181.8435005297859
 31
0.0
  0
LINE
  5
1A29
330
1F
100
AcDbEntity
  8
0
370
    30
100
AcDbLine
 10
821.2523624582484
 20
182.0348016371925
 30
0.0
 11
821.2523624582484
 21
182.1935027291973
 31
0.0
  0
LINE
  5
1A2A
330
1F
100
AcDbEntity
  8
0
370
    30
100
AcDbLine
 10
821.1349645911052
 20
182.1935027291973
 30
0.0
 11
820.9436634836986
 21
182.1935027291973
 31
0.0
  0
LINE
  5
1A2B
330
1F
100
AcDbEntity
  8
0
370
    30
100
AcDbLine
 10
821.1349645911052
 20
182.1935027291973
 30
0.0
 11
821.1349645911052
 21
182.0348016371925
 31
0.0
  0
LINE
  5
1A2C
330
1F
100
AcDbEntity
  8
0
370
    30
100
AcDbLine
 10
821.1349645911052
 20
182.0348016371925
 30
0.0
 11
820.9436634836986
 21
181.8435005297859
 31
0.0
  0
LINE
  5
1A2D
330
1F
100
AcDbEntity
  8
0
370
    30
100
AcDbLine
 10
820.4849647639587
 20
182.6848014643391
 30
0.0
 11
820.2936636565521
 21
182.4935003569325
 31
0.0
  0
LINE
  5
1A2E
330
1F
100
AcDbEntity
  8
0
370
    30
100
AcDbLine
 10
820.4849647639587
 20
182.6848014643391
 30
0.0
 11
820.6436630619958
 21
182.6848014643391
 31
0.0
  0
LINE
  5
1A2F
330
1F
100
AcDbEntity
  8
0
370
    30
100
AcDbLine
 10
820.6436630619958
 20
182.6848014643391
 30
0.0
 11
820.6436630619958
 21
182.4935003569325
 31
0.0
  0
LINE
  5
1A30
330
1F
100
AcDbEntity
  8
0
370
    30
100
AcDbLine
 10
820.4849647639587
 20
182.8022002628048
 30
0.0
 11
820.4849647639587
 21
182.6848014643391
 31
0.0
  0
LINE
  5
1A31
330
1F
100
AcDbEntity
  8
0
370
    30
100
AcDbLine
 10
821.1349645911052
 20
182.0348016371925
 30
0.0
 11
821.2523624582484
 21
182.0348016371925
 31
0.0
  0
LINE
  5
1A32
330
1F
100
AcDbEntity
  8
0
370
    30
100
AcDbLine
 10
821.9023632167175
 20
182.8022002628048
 30
0.0
 11
821.7436630560353
 21
182.8022002628048
 31
0.0
  0
LINE
  5
1A33
330
1F
100
AcDbEntity
  8
0
370
    30
100
AcDbLine
 10
821.7436630560353
 20
182.8022002628048
 30
0.0
 11
821.7436630560353
 21
182.9935013702114
 31
0.0
  0
ARC
  5
1A34
330
1F
100
AcDbEntity
  8
0
370
    30
100
AcDbCircle
 10
820.6436633942916
 20
182.1935013526242
 30
0.0
 40
0.4913009055030102
100
AcDbArc
 50
0.0
 51
90.0
  0
LINE
  5
1A35
330
1F
100
AcDbEntity
  8
0
370
    30
100
AcDbLine
 10
821.2523624582484
 20
183.4522000899513
 30
0.0
 11
821.443663565655
 21
183.6435011973579
 31
0.0
  0
LINE
  5
1A36
330
1F
100
AcDbEntity
  8
0
370
    30
100
AcDbLine
 10
821.2523624582484
 20
183.4522000899513
 30
0.0
 11
821.1349645911052
 21
183.4522000899513
 31
0.0
  0
LINE
  5
1A37
330
1F
100
AcDbEntity
  8
0
370
    30
100
AcDbLine
 10
821.2523624582484
 20
183.2935027232369
 30
0.0
 11
821.443663565655
 21
183.2935027232369
 31
0.0
  0
LINE
  5
1A38
330
1F
100
AcDbEntity
  8
0
370
    30
100
AcDbLine
 10
821.2523624582484
 20
183.2935027232369
 30
0.0
 11
821.2523624582484
 21
183.4522000899513
 31
0.0
  0
ARC
  5
1A39
330
1F
100
AcDbEntity
  8
0
370
    30
100
AcDbCircle
 10
821.7436633942917
 20
183.2935013526243
 30
0.0
 40
0.4913009055030102
100
AcDbArc
 50
180.0
 51
270.0
  0
LINE
  5
1A3A
330
1F
100
AcDbEntity
  8
0
370
    30
100
AcDbLine
 10
791.134964330335
 20
139.1935012688835
 30
0.0
 11
790.9436632229284
 21
139.1935012688835
 31
0.0
  0
LINE
  5
1A3B
330
1F
100
AcDbEntity
  8
0
370
    30
100
AcDbLine
 10
791.134964330335
 20
139.1935012688835
 30
0.0
 11
791.134964330335
 21
139.0348020395239
 31
0.0
  0
LINE
  5
1A3C
330
1F
100
AcDbEntity
  8
0
370
    30
100
AcDbLine
 10
791.134964330335
 20
139.0348020395239
 30
0.0
 11
790.9436632229284
 21
138.8435009321173
 31
0.0
  0
LINE
  5
1A3D
330
1F
100
AcDbEntity
  8
0
370
    30
100
AcDbLine
 10
790.9436632229284
 20
139.1935012688835
 30
0.0
 11
790.9436632229284
 21
138.8435009321173
 31
0.0
  0
LINE
  5
1A3E
330
1F
100
AcDbEntity
  8
0
370
    30
100
AcDbLine
 10
791.2523621974782
 20
139.1935012688835
 30
0.0
 11
791.4436633048848
 21
139.1935012688835
 31
0.0
  0
ARC
  5
1A3F
330
1F
100
AcDbEntity
  8
0
370
    30
100
AcDbCircle
 10
791.743663394292
 20
139.1935013526246
 30
0.0
 40
0.4913009055030102
100
AcDbArc
 50
90.0
 51
180.0
  0
LINE
  5
1A40
330
1F
100
AcDbEntity
  8
0
370
    30
100
AcDbLine
 10
791.7436637265876
 20
139.6848018666704
 30
0.0
 11
791.7436637265876
 21
139.4935016905864
 31
0.0
  0
ARC
  5
1A41
330
1F
100
AcDbEntity
  8
0
370
    30
100
AcDbCircle
 10
791.743663394292
 20
139.1935013526246
 30
0.0
 40
0.3000000000000114
100
AcDbArc
 50
90.0
 51
180.0
  0
LINE
  5
1A42
330
1F
100
AcDbEntity
  8
0
370
    30
100
AcDbLine
 10
791.134964330335
 20
140.2935012629231
 30
0.0
 11
790.9436632229284
 21
140.2935012629231
 31
0.0
  0
ARC
  5
1A43
330
1F
100
AcDbEntity
  8
0
370
    30
100
AcDbCircle
 10
790.643663394292
 20
140.2935013526246
 30
0.0
 40
0.4913009055030102
100
AcDbArc
 50
270.0
 51
0.0
  0
LINE
  5
1A44
330
1F
100
AcDbEntity
  8
0
370
    30
100
AcDbLine
 10
790.6436637325481
 20
139.8022006651362
 30
0.0
 11
790.6436637325481
 21
139.9935017725428
 31
0.0
  0
ARC
  5
1A45
330
1F
100
AcDbEntity
  8
0
370
    30
100
AcDbCircle
 10
790.643663394292
 20
140.2935013526246
 30
0.0
 40
0.2999999999999829
100
AcDbArc
 50
270.0
 51
0.0
  0
LINE
  5
1A46
330
1F
100
AcDbEntity
  8
0
370
    30
100
AcDbLine
 10
791.134964330335
 20
139.0348020395239
 30
0.0
 11
791.2523621974782
 21
139.0348020395239
 31
0.0
  0
LINE
  5
1A47
330
1F
100
AcDbEntity
  8
0
370
    30
100
AcDbLine
 10
791.2523621974782
 20
139.0348020395239
 30
0.0
 11
791.4436633048848
 21
138.8435009321173
 31
0.0
  0
LINE
  5
1A48
330
1F
100
AcDbEntity
  8
0
370
    30
100
AcDbLine
 10
790.9436632229284
 20
138.8435009321173
 30
0.0
 11
791.4436633048848
 21
138.8435009321173
 31
0.0
  0
LINE
  5
1A49
330
1F
100
AcDbEntity
  8
0
370
    30
100
AcDbLine
 10
791.2523621974782
 20
139.0348020395239
 30
0.0
 11
791.2523621974782
 21
139.1935012688835
 31
0.0
  0
LINE
  5
1A4A
330
1F
100
AcDbEntity
  8
0
370
    30
100
AcDbLine
 10
791.4436633048848
 20
138.8435009321173
 30
0.0
 11
791.4436633048848
 21
139.1935012688835
 31
0.0
  0
LINE
  5
1A4B
330
1F
100
AcDbEntity
  8
0
370
    30
100
AcDbLine
 10
791.134964330335
 20
140.4522004922827
 30
0.0
 11
790.9436632229284
 21
140.6435015996893
 31
0.0
  0
LINE
  5
1A4C
330
1F
100
AcDbEntity
  8
0
370
    30
100
AcDbLine
 10
791.134964330335
 20
140.4522004922827
 30
0.0
 11
791.134964330335
 21
140.2935012629231
 31
0.0
  0
LINE
  5
1A4D
330
1F
100
AcDbEntity
  8
0
370
    30
100
AcDbLine
 10
790.9436632229284
 20
140.6435015996893
 30
0.0
 11
790.9436632229284
 21
140.2935012629231
 31
0.0
  0
LINE
  5
1A4E
330
1F
100
AcDbEntity
  8
0
370
    30
100
AcDbLine
 10
790.4849635718659
 20
139.6848018666704
 30
0.0
 11
790.2936624644593
 21
139.4935016905864
 31
0.0
  0
LINE
  5
1A4F
330
1F
100
AcDbEntity
  8
0
370
    30
100
AcDbLine
 10
790.4849635718659
 20
139.6848018666704
 30
0.0
 11
790.6436637325481
 21
139.6848018666704
 31
0.0
  0
LINE
  5
1A50
330
1F
100
AcDbEntity
  8
0
370
    30
100
AcDbLine
 10
790.6436637325481
 20
139.6848018666704
 30
0.0
 11
790.6436637325481
 21
139.4935016905864
 31
0.0
  0
LINE
  5
1A51
330
1F
100
AcDbEntity
  8
0
370
    30
100
AcDbLine
 10
790.2936624644593
 20
139.4935016905864
 30
0.0
 11
790.6436637325481
 21
139.4935016905864
 31
0.0
  0
LINE
  5
1A52
330
1F
100
AcDbEntity
  8
0
370
    30
100
AcDbLine
 10
790.6436637325481
 20
139.8022006651362
 30
0.0
 11
790.4849635718659
 21
139.8022006651362
 31
0.0
  0
LINE
  5
1A53
330
1F
100
AcDbEntity
  8
0
370
    30
100
AcDbLine
 10
790.4849635718659
 20
139.8022006651362
 30
0.0
 11
790.2936624644593
 21
139.9935017725428
 31
0.0
  0
LINE
  5
1A54
330
1F
100
AcDbEntity
  8
0
370
    30
100
AcDbLine
 10
790.6436637325481
 20
139.9935017725428
 30
0.0
 11
790.2936624644593
 21
139.9935017725428
 31
0.0
  0
ARC
  5
1A55
330
1F
100
AcDbEntity
  8
0
370
    30
100
AcDbCircle
 10
790.643663394292
 20
139.1935013526246
 30
0.0
 40
0.4913009055030102
100
AcDbArc
 50
0.0
 51
90.0
  0
ARC
  5
1A56
330
1F
100
AcDbEntity
  8
0
370
    30
100
AcDbCircle
 10
790.643663394292
 20
139.1935013526246
 30
0.0
 40
0.3000000000000114
100
AcDbArc
 50
0.0
 51
90.0
  0
LINE
  5
1A57
330
1F
100
AcDbEntity
  8
0
370
    30
100
AcDbLine
 10
790.4849635718659
 20
139.8022006651362
 30
0.0
 11
790.4849635718659
 21
139.6848018666704
 31
0.0
  0
LINE
  5
1A58
330
1F
100
AcDbEntity
  8
0
370
    30
100
AcDbLine
 10
790.2936624644593
 20
139.9935017725428
 30
0.0
 11
790.2936624644593
 21
139.4935016905864
 31
0.0
  0
LINE
  5
1A59
330
1F
100
AcDbEntity
  8
0
370
    30
100
AcDbLine
 10
791.7436637265876
 20
139.4935016905864
 30
0.0
 11
792.0936631320313
 21
139.4935016905864
 31
0.0
  0
LINE
  5
1A5A
330
1F
100
AcDbEntity
  8
0
370
    30
100
AcDbLine
 10
792.0936631320313
 20
139.4935016905864
 30
0.0
 11
792.0936631320313
 21
139.9935017725428
 31
0.0
  0
LINE
  5
1A5B
330
1F
100
AcDbEntity
  8
0
370
    30
100
AcDbLine
 10
792.0936631320313
 20
139.9935017725428
 30
0.0
 11
791.7436637265876
 21
139.9935017725428
 31
0.0
  0
ARC
  5
1A5C
330
1F
100
AcDbEntity
  8
0
370
    30
100
AcDbCircle
 10
791.743663394292
 20
140.2935013526246
 30
0.0
 40
0.2999999999999829
100
AcDbArc
 50
180.0
 51
270.0
  0
LINE
  5
1A5D
330
1F
100
AcDbEntity
  8
0
370
    30
100
AcDbLine
 10
791.4436633048848
 20
140.2935012629231
 30
0.0
 11
791.4436633048848
 21
140.6435015996893
 31
0.0
  0
LINE
  5
1A5E
330
1F
100
AcDbEntity
  8
0
370
    30
100
AcDbLine
 10
791.4436633048848
 20
140.6435015996893
 30
0.0
 11
790.9436632229284
 21
140.6435015996893
 31
0.0
  0
CIRCLE
  5
1A5F
330
1F
100
AcDbEntity
  8
0
370
    30
100
AcDbCircle
 10
791.1936633942921
 20
139.7435013526246
 30
0.0
 40
1.999999999999985
  0
LINE
  5
1A60
330
1F
100
AcDbEntity
  8
0
370
    30
100
AcDbLine
 10
791.7436637265876
 20
139.8022006651362
 30
0.0
 11
791.7436637265876
 21
139.9935017725428
 31
0.0
  0
ARC
  5
1A61
330
1F
100
AcDbEntity
  8
0
370
    30
100
AcDbCircle
 10
791.743663394292
 20
140.2935013526246
 30
0.0
 40
0.4913009055030102
100
AcDbArc
 50
180.0
 51
270.0
  0
LINE
  5
1A62
330
1F
100
AcDbEntity
  8
0
370
    30
100
AcDbLine
 10
791.2523621974782
 20
140.2935012629231
 30
0.0
 11
791.4436633048848
 21
140.2935012629231
 31
0.0
  0
LINE
  5
1A63
330
1F
100
AcDbEntity
  8
0
370
    30
100
AcDbLine
 10
791.9023620246247
 20
139.6848018666704
 30
0.0
 11
792.0936631320313
 21
139.4935016905864
 31
0.0
  0
LINE
  5
1A64
330
1F
100
AcDbEntity
  8
0
370
    30
100
AcDbLine
 10
791.9023620246247
 20
139.6848018666704
 30
0.0
 11
791.9023620246247
 21
139.8022006651362
 31
0.0
  0
LINE
  5
1A65
330
1F
100
AcDbEntity
  8
0
370
    30
100
AcDbLine
 10
791.9023620246247
 20
139.8022006651362
 30
0.0
 11
792.0936631320313
 21
139.9935017725428
 31
0.0
  0
LINE
  5
1A66
330
1F
100
AcDbEntity
  8
0
370
    30
100
AcDbLine
 10
791.7436637265876
 20
139.6848018666704
 30
0.0
 11
791.9023620246247
 21
139.6848018666704
 31
0.0
  0
LINE
  5
1A67
330
1F
100
AcDbEntity
  8
0
370
    30
100
AcDbLine
 10
791.2523621974782
 20
140.2935012629231
 30
0.0
 11
791.2523621974782
 21
140.4522004922827
 31
0.0
  0
LINE
  5
1A68
330
1F
100
AcDbEntity
  8
0
370
    30
100
AcDbLine
 10
791.2523621974782
 20
140.4522004922827
 30
0.0
 11
791.4436633048848
 21
140.6435015996893
 31
0.0
  0
LINE
  5
1A69
330
1F
100
AcDbEntity
  8
0
370
    30
100
AcDbLine
 10
791.9023620246247
 20
139.8022006651362
 30
0.0
 11
791.7436637265876
 21
139.8022006651362
 31
0.0
  0
LINE
  5
1A6A
330
1F
100
AcDbEntity
  8
0
370
    30
100
AcDbLine
 10
791.2523621974782
 20
140.4522004922827
 30
0.0
 11
791.134964330335
 21
140.4522004922827
 31
0.0
  0
LINE
  5
1A6B
330
1F
100
AcDbEntity
  8
0
370
    30
100
AcDbLine
 10
785.2436626611546
 20
146.3022007992466
 30
0.0
 11
785.2436626611546
 21
146.4935019066532
 31
0.0
  0
ARC
  5
1A6C
330
1F
100
AcDbEntity
  8
0
370
    30
100
AcDbCircle
 10
785.2436633942918
 20
146.7935013526246
 30
0.0
 40
0.4913009055030244
100
AcDbArc
 50
180.0
 51
270.0
  0
LINE
  5
1A6D
330
1F
100
AcDbEntity
  8
0
370
    30
100
AcDbLine
 10
784.7523620633677
 20
146.7935013970335
 30
0.0
 11
784.9436631707743
 21
146.7935013970335
 31
0.0
  0
ARC
  5
1A6E
330
1F
100
AcDbEntity
  8
0
370
    30
100
AcDbCircle
 10
785.2436633942918
 20
146.7935013526246
 30
0.0
 40
0.3000000000000114
100
AcDbArc
 50
180.0
 51
270.0
  0
LINE
  5
1A6F
330
1F
100
AcDbEntity
  8
0
370
    30
100
AcDbLine
 10
785.4023618905142
 20
146.1848020007809
 30
0.0
 11
785.5936629979209
 21
145.9935008933743
 31
0.0
  0
LINE
  5
1A70
330
1F
100
AcDbEntity
  8
0
370
    30
100
AcDbLine
 10
785.4023618905142
 20
146.1848020007809
 30
0.0
 11
785.4023618905142
 21
146.3022007992466
 31
0.0
  0
LINE
  5
1A71
330
1F
100
AcDbEntity
  8
0
370
    30
100
AcDbLine
 10
785.4023618905142
 20
146.3022007992466
 30
0.0
 11
785.5936629979209
 21
146.4935019066532
 31
0.0
  0
LINE
  5
1A72
330
1F
100
AcDbEntity
  8
0
370
    30
100
AcDbLine
 10
785.5936629979209
 20
145.9935008933743
 30
0.0
 11
785.5936629979209
 21
146.4935019066532
 31
0.0
  0
CIRCLE
  5
1A73
330
1F
100
AcDbEntity
  8
0
370
    30
100
AcDbCircle
 10
784.6936633942918
 20
146.2435013526245
 30
0.0
 40
2.0
  0
ARC
  5
1A74
330
1F
100
AcDbEntity
  8
0
370
    30
100
AcDbCircle
 10
784.1436633942918
 20
146.7935013526246
 30
0.0
 40
0.3000000000000114
100
AcDbArc
 50
270.0
 51
0.0
  0
LINE
  5
1A75
330
1F
100
AcDbEntity
  8
0
370
    30
100
AcDbLine
 10
784.1436626671151
 20
146.4935019066532
 30
0.0
 11
783.793664192994
 21
146.4935019066532
 31
0.0
  0
LINE
  5
1A76
330
1F
100
AcDbEntity
  8
0
370
    30
100
AcDbLine
 10
783.793664192994
 20
146.4935019066532
 30
0.0
 11
783.793664192994
 21
145.9935008933743
 31
0.0
  0
LINE
  5
1A77
330
1F
100
AcDbEntity
  8
0
370
    30
100
AcDbLine
 10
783.793664192994
 20
145.9935008933743
 30
0.0
 11
784.1436626671151
 21
145.9935008933743
 31
0.0
  0
ARC
  5
1A78
330
1F
100
AcDbEntity
  8
0
370
    30
100
AcDbCircle
 10
784.1436633942918
 20
145.6935013526246
 30
0.0
 40
0.2999999999999971
100
AcDbArc
 50
359.999999999987
 51
90.0
  0
LINE
  5
1A79
330
1F
100
AcDbEntity
  8
0
370
    30
100
AcDbLine
 10
784.4436640201405
 20
145.693501402994
 30
0.0
 11
784.4436640201405
 21
145.3435010662277
 31
0.0
  0
LINE
  5
1A7A
330
1F
100
AcDbEntity
  8
0
370
    30
100
AcDbLine
 10
784.4436640201405
 20
145.3435010662277
 30
0.0
 11
784.9436631707743
 21
145.3435010662277
 31
0.0
  0
LINE
  5
1A7B
330
1F
100
AcDbEntity
  8
0
370
    30
100
AcDbLine
 10
784.9436631707743
 20
145.3435010662277
 30
0.0
 11
784.9436631707743
 21
145.693501402994
 31
0.0
  0
ARC
  5
1A7C
330
1F
100
AcDbEntity
  8
0
370
    30
100
AcDbCircle
 10
785.2436633942918
 20
145.6935013526246
 30
0.0
 40
0.2999999999999971
100
AcDbArc
 50
90.0
 51
180.0
  0
LINE
  5
1A7D
330
1F
100
AcDbEntity
  8
0
370
    30
100
AcDbLine
 10
785.2436626611546
 20
145.9935008933743
 30
0.0
 11
785.5936629979209
 21
145.9935008933743
 31
0.0
  0
LINE
  5
1A7E
330
1F
100
AcDbEntity
  8
0
370
    30
100
AcDbLine
 10
785.5936629979209
 20
146.4935019066532
 30
0.0
 11
785.2436626611546
 21
146.4935019066532
 31
0.0
  0
LINE
  5
1A7F
330
1F
100
AcDbEntity
  8
0
370
    30
100
AcDbLine
 10
784.9436631707743
 20
146.7935013970335
 30
0.0
 11
784.9436631707743
 21
147.1435017337998
 31
0.0
  0
LINE
  5
1A80
330
1F
100
AcDbEntity
  8
0
370
    30
100
AcDbLine
 10
784.9436631707743
 20
147.1435017337998
 30
0.0
 11
784.4436640201405
 21
147.1435017337998
 31
0.0
  0
LINE
  5
1A81
330
1F
100
AcDbEntity
  8
0
370
    30
100
AcDbLine
 10
784.4436640201405
 20
147.1435017337998
 30
0.0
 11
784.4436640201405
 21
146.7935013970335
 31
0.0
  0
LINE
  5
1A82
330
1F
100
AcDbEntity
  8
0
370
    30
100
AcDbLine
 10
785.4023618905142
 20
146.3022007992466
 30
0.0
 11
785.2436626611546
 21
146.3022007992466
 31
0.0
  0
LINE
  5
1A83
330
1F
100
AcDbEntity
  8
0
370
    30
100
AcDbLine
 10
784.1436626671151
 20
146.3022007992466
 30
0.0
 11
784.1436626671151
 21
146.4935019066532
 31
0.0
  0
LINE
  5
1A84
330
1F
100
AcDbEntity
  8
0
370
    30
100
AcDbLine
 10
784.1436626671151
 20
146.3022007992466
 30
0.0
 11
783.9849634377554
 21
146.3022007992466
 31
0.0
  0
LINE
  5
1A85
330
1F
100
AcDbEntity
  8
0
370
    30
100
AcDbLine
 10
783.9849634377554
 20
146.3022007992466
 30
0.0
 11
783.793664192994
 21
146.4935019066532
 31
0.0
  0
LINE
  5
1A86
330
1F
100
AcDbEntity
  8
0
370
    30
100
AcDbLine
 10
784.6349651275471
 20
146.7935013970335
 30
0.0
 11
784.4436640201405
 21
146.7935013970335
 31
0.0
  0
ARC
  5
1A87
330
1F
100
AcDbEntity
  8
0
370
    30
100
AcDbCircle
 10
784.1436633942918
 20
146.7935013526246
 30
0.0
 40
0.4913009055030244
100
AcDbArc
 50
270.0
 51
0.0
  0
LINE
  5
1A88
330
1F
100
AcDbEntity
  8
0
370
    30
100
AcDbLine
 10
784.7523620633677
 20
146.9522006263931
 30
0.0
 11
784.9436631707743
 21
147.1435017337998
 31
0.0
  0
LINE
  5
1A89
330
1F
100
AcDbEntity
  8
0
370
    30
100
AcDbLine
 10
784.7523620633677
 20
146.9522006263931
 30
0.0
 11
784.6349651275471
 21
146.9522006263931
 31
0.0
  0
LINE
  5
1A8A
330
1F
100
AcDbEntity
  8
0
370
    30
100
AcDbLine
 10
784.6349651275471
 20
146.9522006263931
 30
0.0
 11
784.4436640201405
 21
147.1435017337998
 31
0.0
  0
LINE
  5
1A8B
330
1F
100
AcDbEntity
  8
0
370
    30
100
AcDbLine
 10
784.7523620633677
 20
146.7935013970335
 30
0.0
 11
784.7523620633677
 21
146.9522006263931
 31
0.0
  0
LINE
  5
1A8C
330
1F
100
AcDbEntity
  8
0
370
    30
100
AcDbLine
 10
785.2436626611546
 20
146.1848020007809
 30
0.0
 11
785.2436626611546
 21
145.9935008933743
 31
0.0
  0
LINE
  5
1A8D
330
1F
100
AcDbEntity
  8
0
370
    30
100
AcDbLine
 10
785.2436626611546
 20
146.1848020007809
 30
0.0
 11
785.4023618905142
 21
146.1848020007809
 31
0.0
  0
LINE
  5
1A8E
330
1F
100
AcDbEntity
  8
0
370
    30
100
AcDbLine
 10
784.7523620633677
 20
145.693501402994
 30
0.0
 11
784.9436631707743
 21
145.693501402994
 31
0.0
  0
ARC
  5
1A8F
330
1F
100
AcDbEntity
  8
0
370
    30
100
AcDbCircle
 10
785.2436633942918
 20
145.6935013526246
 30
0.0
 40
0.4913009055030244
100
AcDbArc
 50
90.0
 51
180.0
  0
LINE
  5
1A90
330
1F
100
AcDbEntity
  8
0
370
    30
100
AcDbLine
 10
784.7523620633677
 20
145.5348021736343
 30
0.0
 11
784.9436631707743
 21
145.3435010662277
 31
0.0
  0
LINE
  5
1A91
330
1F
100
AcDbEntity
  8
0
370
    30
100
AcDbLine
 10
784.7523620633677
 20
145.5348021736343
 30
0.0
 11
784.7523620633677
 21
145.693501402994
 31
0.0
  0
LINE
  5
1A92
330
1F
100
AcDbEntity
  8
0
370
    30
100
AcDbLine
 10
784.6349651275471
 20
145.5348021736343
 30
0.0
 11
784.4436640201405
 21
145.3435010662277
 31
0.0
  0
LINE
  5
1A93
330
1F
100
AcDbEntity
  8
0
370
    30
100
AcDbLine
 10
784.6349651275471
 20
145.5348021736343
 30
0.0
 11
784.7523620633677
 21
145.5348021736343
 31
0.0
  0
LINE
  5
1A94
330
1F
100
AcDbEntity
  8
0
370
    30
100
AcDbLine
 10
784.6349651275471
 20
145.693501402994
 30
0.0
 11
784.4436640201405
 21
145.693501402994
 31
0.0
  0
LINE
  5
1A95
330
1F
100
AcDbEntity
  8
0
370
    30
100
AcDbLine
 10
784.6349651275471
 20
145.693501402994
 30
0.0
 11
784.6349651275471
 21
145.5348021736343
 31
0.0
  0
LINE
  5
1A96
330
1F
100
AcDbEntity
  8
0
370
    30
100
AcDbLine
 10
784.1436626671151
 20
146.1848020007809
 30
0.0
 11
784.1436626671151
 21
145.9935008933743
 31
0.0
  0
ARC
  5
1A97
330
1F
100
AcDbEntity
  8
0
370
    30
100
AcDbCircle
 10
784.1436633942918
 20
145.6935013526246
 30
0.0
 40
0.4913009055030244
100
AcDbArc
 50
359.999999999987
 51
90.0
  0
LINE
  5
1A98
330
1F
100
AcDbEntity
  8
0
370
    30
100
AcDbLine
 10
783.9849634377554
 20
146.1848020007809
 30
0.0
 11
783.793664192994
 21
145.9935008933743
 31
0.0
  0
LINE
  5
1A99
330
1F
100
AcDbEntity
  8
0
370
    30
100
AcDbLine
 10
783.9849634377554
 20
146.1848020007809
 30
0.0
 11
784.1436626671151
 21
146.1848020007809
 31
0.0
  0
LINE
  5
1A9A
330
1F
100
AcDbEntity
  8
0
370
    30
100
AcDbLine
 10
783.9849634377554
 20
146.3022007992466
 30
0.0
 11
783.9849634377554
 21
146.1848020007809
 31
0.0
  0
LINE
  5
1A9B
330
1F
100
AcDbEntity
  8
0
370
    30
100
AcDbLine
 10
784.6349651275471
 20
146.9522006263931
 30
0.0
 11
784.6349651275471
 21
146.7935013970335
 31
0.0
  0
CIRCLE
  5
1A9C
330
1F
100
AcDbEntity
  8
0
370
    30
100
AcDbCircle
 10
784.6936633942918
 20
146.2435013526245
 30
0.0
 40
2.200000000000017
  0
CIRCLE
  5
1A9D
330
1F
100
AcDbEntity
  8
0
370
    30
100
AcDbCircle
 10
791.1936633942921
 20
139.7435013526246
 30
0.0
 40
2.200000000000045
  0
CIRCLE
  5
1A9E
330
1F
100
AcDbEntity
  8
0
370
    30
100
AcDbCircle
 10
821.1936633942917
 20
182.7435013526243
 30
0.0
 40
2.199999999999988
  0
CIRCLE
  5
1A9F
330
1F
100
AcDbEntity
  8
0
370
    30
100
AcDbCircle
 10
827.6936633942918
 20
176.2435013526243
 30
0.0
 40
2.199999999999988
  0
LINE
  5
1AA0
330
1F
100
AcDbEntity
  8
0
370
    30
100
AcDbLine
 10
788.6936633197859
 20
140.7435014298161
 30
0.0
 11
788.6936633197859
 21
140.2435013478597
 31
0.0
  0
ARC
  5
1AA1
330
1F
100
AcDbEntity
  8
0
  6
Continuous
 62
     7
370
    15
100
AcDbCircle
 10
785.6936633942921
 20
140.7435013526245
 30
0.0
 40
3.000000000000028
100
AcDbArc
 50
0.0
 51
90.0
  0
LINE
  5
1AA2
330
1F
100
AcDbEntity
  8
0
370
    30
100
AcDbLine
 10
785.1936636774138
 20
143.7435019215544
 30
0.0
 11
785.6936628280476
 21
143.7435019215544
 31
0.0
  0
ARC
  5
1AA3
330
1F
100
AcDbEntity
  8
0
370
    30
100
AcDbCircle
 10
785.1936633942917
 20
146.7435013526245
 30
0.0
 40
3.0
100
AcDbArc
 50
180.0
 51
270.0
  0
LINE
  5
1AA4
330
1F
100
AcDbEntity
  8
0
370
    30
100
AcDbLine
 10
782.1936631856755
 20
182.243499850293
 30
0.0
 11
782.1936631856755
 21
146.7435005506476
 31
0.0
  0
ARC
  5
1AA5
330
1F
100
AcDbEntity
  8
0
370
    30
100
AcDbCircle
 10
785.1936633942917
 20
182.2435013526243
 30
0.0
 40
3.000000000000014
100
AcDbArc
 50
90.0
 51
180.0
  0
LINE
  5
1AA6
330
1F
100
AcDbEntity
  8
0
370
    30
100
AcDbLine
 10
820.6936629770591
 20
185.2435022046764
 30
0.0
 11
785.1936636774138
 21
185.2435022046764
 31
0.0
  0
ARC
  5
1AA7
330
1F
100
AcDbEntity
  8
0
370
    30
100
AcDbCircle
 10
820.6936633942916
 20
182.2435013526243
 30
0.0
 40
3.000000000000014
100
AcDbArc
 50
0.0
 51
90.0
  0
LINE
  5
1AA8
330
1F
100
AcDbEntity
  8
0
370
    30
100
AcDbLine
 10
823.6936634687975
 20
181.7435025623043
 30
0.0
 11
823.6936634687975
 21
182.243499850293
 31
0.0
  0
ARC
  5
1AA9
330
1F
100
AcDbEntity
  8
0
  6
Continuous
 62
     7
370
    15
100
AcDbCircle
 10
826.6936633942917
 20
181.7435013526243
 30
0.0
 40
3.000000000000028
100
AcDbArc
 50
180.0
 51
270.0
  0
LINE
  5
1AAA
330
1F
100
AcDbEntity
  8
0
  6
Continuous
 62
     7
370
    15
100
AcDbLine
 10
827.1936631111696
 20
178.7435002079208
 30
0.0
 11
826.6936639605358
 21
178.7435002079208
 31
0.0
  0
ARC
  5
1AAB
330
1F
100
AcDbEntity
  8
0
370
    30
100
AcDbCircle
 10
827.1936633942917
 20
175.7435013526243
 30
0.0
 40
3.0
100
AcDbArc
 50
0.0
 51
90.0
  0
LINE
  5
1AAC
330
1F
100
AcDbEntity
  8
0
370
    30
100
AcDbLine
 10
830.1936636029079
 20
140.2435013478597
 30
0.0
 11
830.1936636029079
 21
175.7435015788277
 31
0.0
  0
ARC
  5
1AAD
330
1F
100
AcDbEntity
  8
0
370
    30
100
AcDbCircle
 10
827.1936633942917
 20
140.2435013526245
 30
0.0
 40
3.0
100
AcDbArc
 50
270.0
 51
0.0
  0
LINE
  5
1AAE
330
1F
100
AcDbEntity
  8
0
370
    30
100
AcDbLine
 10
791.6936638115243
 20
137.2435017874439
 30
0.0
 11
827.1936631111696
 21
137.2435017874439
 31
0.0
  0
ARC
  5
1AAF
330
1F
100
AcDbEntity
  8
0
370
    30
100
AcDbCircle
 10
791.6936633942921
 20
140.2435013526245
 30
0.0
 40
3.0
100
AcDbArc
 50
180.0
 51
270.0
  0
ARC
  5
1AB0
330
1F
100
AcDbEntity
  8
0
370
    30
100
AcDbCircle
 10
785.1936633942917
 20
182.2435013526243
 30
0.0
 40
4.000000000000014
100
AcDbArc
 50
90.0
 51
180.0
  0
LINE
  5
1AB1
330
1F
100
AcDbEntity
  8
0
370
    30
100
AcDbLine
 10
827.1936631111696
 20
186.2435005059441
 30
0.0
 11
785.1936636774138
 21
186.2435005059441
 31
0.0
  0
LINE
  5
1AB2
330
1F
100
AcDbEntity
  8
0
370
    30
100
AcDbLine
 10
820.6936629770591
 20
185.2435022046764
 30
0.0
 11
785.1936636774138
 21
185.2435022046764
 31
0.0
  0
LINE
  5
1AB3
330
1F
100
AcDbEntity
  8
0
370
    30
100
AcDbLine
 10
782.1936631856755
 20
182.243499850293
 30
0.0
 11
782.1936631856755
 21
146.7435005506476
 31
0.0
  0
ARC
  5
1AB4
330
1F
100
AcDbEntity
  8
0
370
    30
100
AcDbCircle
 10
785.1936633942917
 20
146.7435013526246
 30
0.0
 40
3.0
100
AcDbArc
 50
180.0
 51
270.0
  0
LINE
  5
1AB5
330
1F
100
AcDbEntity
  8
0
370
    30
100
AcDbLine
 10
785.1936636774138
 20
143.7435019215544
 30
0.0
 11
785.6936628280476
 21
143.7435019215544
 31
0.0
  0
ARC
  5
1AB6
330
1F
100
AcDbEntity
  8
0
370
    30
100
AcDbCircle
 10
785.693663394292
 20
140.7435013526245
 30
0.0
 40
3.000000000000014
100
AcDbArc
 50
0.0
 51
90.0
  0
LINE
  5
1AB7
330
1F
100
AcDbEntity
  8
0
370
    30
100
AcDbLine
 10
788.6936633197859
 20
140.7435014298161
 30
0.0
 11
788.6936633197859
 21
140.2435013478597
 31
0.0
  0
CIRCLE
  5
1AB8
330
1F
100
AcDbEntity
  8
0
370
    30
100
AcDbCircle
 10
785.193663394292
 20
140.2435013526244
 30
0.0
 40
3.099999999999994
  0
CIRCLE
  5
1AB9
330
1F
100
AcDbEntity
  8
0
370
    30
100
AcDbCircle
 10
827.1936633942916
 20
182.2435013526243
 30
0.0
 40
3.099999999999965
  0
ARC
  5
1ABA
330
1F
100
AcDbEntity
  8
0
370
    30
100
AcDbCircle
 10
791.693663394292
 20
140.2435013526245
 30
0.0
 40
2.999999999999985
100
AcDbArc
 50
180.0
 51
270.0
  0
LINE
  5
1ABB
330
1F
100
AcDbEntity
  8
0
370
    30
100
AcDbLine
 10
791.6936638115243
 20
137.2435017874439
 30
0.0
 11
827.1936631111696
 21
137.2435017874439
 31
0.0
  0
ARC
  5
1ABC
330
1F
100
AcDbEntity
  8
0
370
    30
100
AcDbCircle
 10
827.1936633942917
 20
182.2435013526243
 30
0.0
 40
4.000000000000028
100
AcDbArc
 50
0.0
 51
90.0
  0
LINE
  5
1ABD
330
1F
100
AcDbEntity
  8
0
370
    30
100
AcDbLine
 10
830.1936636029079
 20
140.2435013478597
 30
0.0
 11
830.1936636029079
 21
175.7435015788277
 31
0.0
  0
ARC
  5
1ABE
330
1F
100
AcDbEntity
  8
0
370
    30
100
AcDbCircle
 10
827.1936633942917
 20
175.7435013526243
 30
0.0
 40
3.0
100
AcDbArc
 50
0.0
 51
90.0
  0
LINE
  5
1ABF
330
1F
100
AcDbEntity
  8
0
370
    30
100
AcDbLine
 10
827.1936631111696
 20
178.7435002079208
 30
0.0
 11
826.6936639605358
 21
178.7435002079208
 31
0.0
  0
ARC
  5
1AC0
330
1F
100
AcDbEntity
  8
0
370
    30
100
AcDbCircle
 10
826.6936633942915
 20
181.7435013526243
 30
0.0
 40
3.000000000000028
100
AcDbArc
 50
180.0
 51
270.0
  0
LINE
  5
1AC1
330
1F
100
AcDbEntity
  8
0
370
    30
100
AcDbLine
 10
823.6936634687975
 20
181.7435025623043
 30
0.0
 11
823.6936634687975
 21
182.243499850293
 31
0.0
  0
ARC
  5
1AC2
330
1F
100
AcDbEntity
  8
0
370
    30
100
AcDbCircle
 10
820.6936633942914
 20
182.2435013526243
 30
0.0
 40
3.000000000000014
100
AcDbArc
 50
0.0
 51
90.0
  0
LINE
  5
1AC3
330
1F
100
AcDbEntity
  8
0
370
    30
100
AcDbLine
 10
831.1936637668207
 20
140.2435013478597
 30
0.0
 11
831.1936637668207
 21
182.243499850293
 31
0.0
  0
ARC
  5
1AC4
330
1F
100
AcDbEntity
  8
0
370
    30
100
AcDbCircle
 10
827.1936633942917
 20
140.2435013526245
 30
0.0
 40
4.000000000000028
100
AcDbArc
 50
270.0
 51
0.0
  0
LINE
  5
1AC5
330
1F
100
AcDbEntity
  8
0
370
    30
100
AcDbLine
 10
785.1936636774138
 20
136.2435016235312
 30
0.0
 11
827.1936631111696
 21
136.2435016235312
 31
0.0
  0
ARC
  5
1AC6
330
1F
100
AcDbEntity
  8
0
370
    30
100
AcDbCircle
 10
827.1936633942917
 20
140.2435013526245
 30
0.0
 40
3.0
100
AcDbArc
 50
270.0
 51
0.0
  0
ARC
  5
1AC7
330
1F
100
AcDbEntity
  8
0
370
    30
100
AcDbCircle
 10
785.1936633942917
 20
182.2435013526243
 30
0.0
 40
3.000000000000014
100
AcDbArc
 50
90.0
 51
180.0
  0
ARC
  5
1AC8
330
1F
100
AcDbEntity
  8
0
370
    30
100
AcDbCircle
 10
785.1936633942917
 20
140.2435013526245
 30
0.0
 40
4.0
100
AcDbArc
 50
180.0
 51
270.0
  0
LINE
  5
1AC9
330
1F
100
AcDbEntity
  8
0
370
    30
100
AcDbLine
 10
781.1936630217627
 20
182.243499850293
 30
0.0
 11
781.1936630217627
 21
140.2435013478597
 31
0.0
  0
CIRCLE
  5
1ACA
330
1F
100
AcDbEntity
  8
0
370
    30
100
AcDbCircle
 10
827.1936633942916
 20
182.2435013526243
 30
0.0
 40
1.800000000000011
  0
CIRCLE
  5
1ACB
330
1F
100
AcDbEntity
  8
0
370
    30
100
AcDbCircle
 10
785.193663394292
 20
140.2435013526244
 30
0.0
 40
1.800000000000011
  0
LINE
  5
1ACC
330
1F
100
AcDbEntity
  8
0
370
    30
100
AcDbLine
 10
801.3350848390057
 20
190.102081691285
 30
0.0
 11
793.0522417931155
 21
190.102081691285
 31
0.0
  0
LINE
  5
1ACD
330
1F
100
AcDbEntity
  8
0
370
    30
100
AcDbLine
 10
793.0522417931155
 20
190.3849243571957
 30
0.0
 11
801.3350848390057
 21
190.3849243571957
 31
0.0
  0
DIMENSION
  5
1ACE
330
1F
100
AcDbEntity
  8
0
100
AcDbDimension
  2
*D17
 10
856.6899449667063
 20
136.2435013526246
 30
0.0
 11
856.6899449667063
 21
154.1278388291012
 31
0.0
 70
   160
 71
     2
 42
49.99999999999966
  3
ISO-25
100
AcDbAlignedDimension
 13
827.1936633942917
 23
186.2435013526243
 33
0.0
 14
827.1936633942917
 24
136.2435013526246
 34
0.0
 50
270.0
100
AcDbRotatedDimension
  0
DIMENSION
  5
1ACF
330
1F
100
AcDbEntity
  8
0
100
AcDbDimension
  2
*D18
 10
781.1936633942917
 20
113.9040916102608
 30
0.0
 11
799.3829861962938
 21
113.9040916102608
 31
0.0
 70
   160
 71
     2
 42
50.0
  3
ISO-25
100
AcDbAlignedDimension
 13
831.1936633942917
 23
140.2435013526245
 33
0.0
 14
781.1936633942917
 24
140.2435013526245
 34
0.0
100
AcDbRotatedDimension
  0
LINE
  5
1B0C
330
1F
100
AcDbEntity
  8
0
  6
CENTER
 62
     4
100
AcDbLine
 10
797.1936623847381
 20
186.2435005059441
 30
0.0
 11
797.1936623847381
 21
197.9435028186043
 31
0.0
  0
LINE
  5
1B0D
330
1F
100
AcDbEntity
  8
0
  6
CENTER
 62
     4
100
AcDbLine
 10
782.693663394292
 20
140.2435013526244
 30
0.0
 11
787.693663394292
 21
140.2435013526244
 31
0.0
  0
LINE
  5
1B0E
330
1F
100
AcDbEntity
  8
0
  6
CENTER
 62
     4
100
AcDbLine
 10
785.193663394292
 20
137.7435013526244
 30
0.0
 11
785.193663394292
 21
142.7435013526244
 31
0.0
  0
LINE
  5
1B0F
330
1F
100
AcDbEntity
  8
0
  6
CENTER
 62
     4
100
AcDbLine
 10
824.6936633942917
 20
182.2435013526243
 30
0.0
 11
829.6936633942916
 21
182.2435013526243
 31
0.0
  0
LINE
  5
1B10
330
1F
100
AcDbEntity
  8
0
  6
CENTER
 62
     4
100
AcDbLine
 10
827.1936633942916
 20
179.7435013526243
 30
0.0
 11
827.1936633942916
 21
184.7435013526243
 31
0.0
  0
DIMENSION
  5
1B1A
330
1F
100
AcDbEntity
  8
0
100
AcDbDimension
  2
*D19
 10
781.1936630217627
 20
123.8101270105304
 30
0.0
 11
770.8603296884294
 21
126.8101270105304
 31
0.0
 70
    32
 71
     5
 42
4.000000372529257
  3
ISO-25
100
AcDbAlignedDimension
 13
785.193663394292
 23
137.7435013526244
 33
0.0
 14
781.1936630217627
 24
140.2435013478597
 34
0.0
100
AcDbRotatedDimension
  0
DIMENSION
  5
1B29
330
1F
100
AcDbEntity
  8
0
100
AcDbDimension
  2
*D20
 10
827.1936633942916
 20
123.8101270105304
 30
0.0
 11
806.1936633942918
 21
126.8101270105304
 31
0.0
 70
    32
 71
     5
 42
41.99999999999966
  3
ISO-25
100
AcDbAlignedDimension
 13
785.193663394292
 23
137.7435013526244
 33
0.0
 14
827.1936633942916
 24
179.7435013526243
 34
0.0
100
AcDbRotatedDimension
  0
DIMENSION
  5
1B65
330
1F
100
AcDbEntity
  8
0
100
AcDbDimension
  2
*D21
 10
846.8467949409648
 20
136.2435016235311
 30
0.0
 11
843.8467949409648
 21
125.9101682901979
 31
0.0
 70
    32
 71
     5
 42
3.999999729093246
  3
ISO-25
100
AcDbAlignedDimension
 13
787.693663394292
 23
140.2435013526244
 33
0.0
 14
827.1936633942916
 24
136.2435016235312
 34
0.0
 50
90.0
100
AcDbRotatedDimension
  0
DIMENSION
  5
1B74
330
1F
100
AcDbEntity
  8
0
100
AcDbDimension
  2
*D22
 10
846.8467949409648
 20
182.2435013526243
 30
0.0
 11
843.8467949409648
 21
161.2435013526245
 31
0.0
 70
    32
 71
     5
 42
41.99999999999988
  3
ISO-25
100
AcDbAlignedDimension
 13
787.693663394292
 23
140.2435013526244
 33
0.0
 14
829.6936633942916
 24
182.2435013526243
 34
0.0
 50
90.0
100
AcDbRotatedDimension
  0
DIMENSION
  5
1B8A
330
1F
100
AcDbEntity
  8
0
100
AcDbDimension
  2
*D23
 10
856.5938592456298
 20
186.243500505944
 30
0.0
 11
856.5938592456298
 21
207.2768361519378
 31
0.0
 70
   160
 71
     5
 42
10.70000231266021
  3
ISO-25
100
AcDbAlignedDimension
 13
801.5936632922187
 23
196.9435028186043
 33
0.0
 14
827.196265977872
 24
186.2435005059441
 34
0.0
 50
90.0
100
AcDbRotatedDimension
  0
DIMENSION
  5
1BAC
330
1F
100
AcDbEntity
  8
0
100
AcDbDimension
  2
*D24
 10
781.1936630217627
 20
206.9266748950254
 30
0.0
 11
789.1936627032504
 21
209.9266748950254
 31
0.0
 70
    32
 71
     5
 42
15.99999936297536
  3
ISO-25
100
AcDbAlignedDimension
 13
797.1936623847381
 23
197.9435028186043
 33
0.0
 14
781.1936630217627
 24
182.243499850293
 34
0.0
100
AcDbRotatedDimension
  0
LINE
  5
1C42
102
{ACAD_REACTORS
330
1CB9
102
}
330
1F
100
AcDbEntity
  8
0
370
    30
100
AcDbLine
 10
673.0493261188098
 20
118.2629093421038
 30
0.0
 11
678.0493269383737
 21
118.2629093421038
 31
0.0
  0
LINE
  5
1C45
102
{ACAD_REACTORS
330
1CB9
102
}
330
1F
100
AcDbEntity
  8
0
370
    30
100
AcDbLine
 10
661.5493261546657
 20
118.2629093421038
 30
0.0
 11
667.0493260666558
 21
118.2629093421038
 31
0.0
  0
LINE
  5
1C46
102
{ACAD_REACTORS
330
1CB9
102
}
330
1F
100
AcDbEntity
  8
0
370
    30
100
AcDbLine
 10
673.0493261188098
 20
119.5629089963969
 30
0.0
 11
667.0493260666558
 21
119.5629089963969
 31
0.0
  0
LINE
  5
1C47
102
{ACAD_REACTORS
330
1CB9
102
}
330
1F
100
AcDbEntity
  8
0
370
    30
100
AcDbLine
 10
667.0493260666558
 20
119.5629089963969
 30
0.0
 11
667.0493260666558
 21
118.2629093421038
 31
0.0
  0
LINE
  5
1C48
102
{ACAD_REACTORS
330
1CB9
102
}
330
1F
100
AcDbEntity
  8
0
370
    30
100
AcDbLine
 10
673.0493261188098
 20
118.2629093421038
 30
0.0
 11
673.0493261188098
 21
119.5629089963969
 31
0.0
  0
LINE
  5
1C4A
102
{ACAD_REACTORS
330
1CB9
102
}
330
1F
100
AcDbEntity
  8
0
370
    30
100
AcDbLine
 10
667.0493260666558
 20
124.462909985834
 30
0.0
 11
661.5493261546657
 21
124.462909985834
 31
0.0
  0
LINE
  5
1C4C
102
{ACAD_REACTORS
330
1CB9
102
}
330
1F
100
AcDbEntity
  8
0
370
    30
100
AcDbLine
 10
678.0493269383737
 20
124.462909985834
 30
0.0
 11
673.0493261188098
 21
124.462909985834
 31
0.0
  0
LINE
  5
1C4E
102
{ACAD_REACTORS
330
1CB9
102
}
330
1F
100
AcDbEntity
  8
0
370
    30
100
AcDbLine
 10
667.0493260666558
 20
123.1629103315409
 30
0.0
 11
673.0493261188098
 21
123.1629103315409
 31
0.0
  0
LINE
  5
1C4F
330
1F
100
AcDbEntity
  8
0
370
    30
100
AcDbLine
 10
667.0493260666558
 20
123.1629103315409
 30
0.0
 11
667.0493260666558
 21
119.5629089963969
 31
0.0
  0
LINE
  5
1C50
330
1F
100
AcDbEntity
  8
0
370
    30
100
AcDbLine
 10
673.0493261188098
 20
119.5629089963969
 30
0.0
 11
673.0493261188098
 21
119.8629097533759
 31
0.0
  0
LINE
  5
1C52
102
{ACAD_REACTORS
330
1CB9
102
}
330
1F
100
AcDbEntity
  8
0
370
    30
100
AcDbLine
 10
667.0493260666558
 20
124.462909985834
 30
0.0
 11
667.0493260666558
 21
123.1629103315409
 31
0.0
  0
LINE
  5
1C53
102
{ACAD_REACTORS
330
1CB9
102
}
330
1F
100
AcDbEntity
  8
0
370
    30
100
AcDbLine
 10
673.0493261188098
 20
123.1629103315409
 30
0.0
 11
673.0493261188098
 21
124.462909985834
 31
0.0
  0
LINE
  5
1C58
330
1F
100
AcDbEntity
  8
0
  6
CENTER
 62
     4
100
AcDbLine
 10
660.8344190466643
 20
121.362909753376
 30
0.0
 11
680.554113667447
 21
121.362909753376
 31
0.0
  0
SPLINE
  5
1C86
102
{ACAD_REACTORS
330
1CB9
102
}
330
1F
100
AcDbEntity
  8
0
 62
     3
100
AcDbSpline
210
0.0
220
0.0
230
1.0
 70
     8
 71
     3
 72
    12
 73
     8
 74
     6
 42
0.0000000001
 43
0.0000000001
 44
0.0000000001
 40
0.0
 40
0.0
 40
0.0
 40
0.0
 40
3.235850784308526
 40
6.369504232589866
 40
10.61027772667283
 40
15.375869642239
 40
16.22464350110196
 40
16.22464350110196
 40
16.22464350110196
 40
16.22464350110196
 10
661.5493270277807
 20
125.2351288467619
 30
0.0
 10
662.6259027781775
 20
125.5127838926923
 30
0.0
 10
664.745052966471
 20
126.0593248515121
 30
0.0
 10
668.1361926233503
 20
124.317833698471
 30
0.0
 10
672.1560656016094
 20
125.9529012079396
 30
0.0
 10
675.6060789695659
 20
124.3643560132174
 30
0.0
 10
677.2941300213731
 20
125.2317732411118
 30
0.0
 10
677.5493277877398
 20
125.3629084569749
 30
0.0
 11
661.5493270277807
 21
125.2351288467619
 31
0.0
 11
664.7575299294174
 21
125.6572241443429
 31
0.0
 11
667.7976829436463
 21
124.8974520837878
 31
0.0
 11
672.0201181020304
 21
125.2914078698332
 31
0.0
 11
676.7773948555993
 21
125.0100110047792
 31
0.0
 11
677.5493277877398
 21
125.3629084569749
 31
0.0
  0
LINE
  5
1C99
330
1F
100
AcDbEntity
  8
0
 62
     3
100
AcDbLine
 10
678.0493269383738
 20
120.112909753376
 30
0.0
 11
667.0493260666558
 21
120.112909753376
 31
0.0
  0
LINE
  5
1C9A
330
1F
100
AcDbEntity
  8
0
 62
     3
100
AcDbLine
 10
667.0493260666558
 20
122.612909753376
 30
0.0
 11
678.0493269383738
 21
122.612909753376
 31
0.0
  0
LINE
  5
1C9B
330
1F
100
AcDbEntity
  8
0
370
    30
100
AcDbLine
 10
667.0493260666558
 20
122.8629097533761
 30
0.0
 11
678.0493269383738
 21
122.8629097533757
 31
0.0
  0
LINE
  5
1C9C
330
1F
100
AcDbEntity
  8
0
370
    30
100
AcDbLine
 10
678.0493269383738
 20
119.8629097533756
 30
0.0
 11
667.0493260666558
 21
119.8629097533761
 31
0.0
  0
LWPOLYLINE
  5
1C9D
330
1F
100
AcDbEntity
  8
0
370
    30
100
AcDbPolyline
 90
        6
 70
     0
 43
0.0
 10
664.0493260666557
 20
120.962909753376
 10
664.0493260666557
 20
118.862909753376
 10
666.0493260666558
 20
118.862909753376
 10
666.0493260666558
 20
123.862909753376
 10
664.0493260666557
 20
123.862909753376
 10
664.0493260666557
 20
121.762909753376
  0
LINE
  5
1C9E
330
1F
100
AcDbEntity
  8
0
370
    30
100
AcDbLine
 10
665.0493260666557
 20
120.962909753376
 30
0.0
 11
665.0493260666557
 21
121.762909753376
 31
0.0
  0
LINE
  5
1C9F
330
1F
100
AcDbEntity
  8
0
370
    30
100
AcDbLine
 10
664.0493260666557
 20
120.962909753376
 30
0.0
 11
665.0493260666557
 21
120.962909753376
 31
0.0
  0
LINE
  5
1CA0
330
1F
100
AcDbEntity
  8
0
370
    30
100
AcDbLine
 10
665.0493260666557
 20
121.762909753376
 30
0.0
 11
664.0493260666557
 21
121.762909753376
 31
0.0
  0
LINE
  5
1CA1
330
1F
100
AcDbEntity
  8
0
370
    30
100
AcDbLine
 10
666.0493260666558
 20
118.862909753376
 30
0.0
 11
667.0493260666558
 21
118.862909753376
 31
0.0
  0
LINE
  5
1CA2
330
1F
100
AcDbEntity
  8
0
370
    30
100
AcDbLine
 10
666.0493260666558
 20
123.862909753376
 30
0.0
 11
667.0493260666558
 21
123.862909753376
 31
0.0
  0
LINE
  5
1CA3
330
1F
100
AcDbEntity
  8
0
370
    30
100
AcDbLine
 10
673.0493261188098
 20
122.8629097533759
 30
0.0
 11
673.0493261188098
 21
123.1629103315409
 31
0.0
  0
HATCH
  5
1CB9
330
1F
100
AcDbEntity
  8
0
 62
     2
100
AcDbHatch
 10
0.0
 20
0.0
 30
0.0
210
0.0
220
0.0
230
1.0
  2
ANSI31
 70
     0
 71
     1
 91
        2
 92
        7
 72
     0
 73
     1
 93
       11
 10
673.0493261188099
 20
119.5629089963969
 10
667.0493260666558
 20
119.5629089963969
 10
667.0493260666558
 20
118.2629093421038
 10
661.5493270277806
 20
118.2629093421038
 10
661.5493270277806
 20
117.3629090083178
 10
665.5493276834317
 20
117.3629090083178
 10
673.5493271320887
 20
117.3629090083178
 10
677.5493277877398
 20
117.3629090083178
 10
678.0493269383738
 20
117.3629090083178
 10
678.049326938374
 20
118.2629093421038
 10
673.0493261188098
 20
118.2629093421038
 97
       11
330
1C46
330
1C47
330
1C45
330
18BF
330
18BE
330
18BD
330
18BC
330
18C3
330
18C2
330
1C42
330
1C48
 92
        5
 93
        9
 72
     1
 10
673.0493261188098
 20
124.462909985834
 11
678.0493269383738
 21
124.462909985834
 72
     1
 10
678.0493269383738
 20
124.462909985834
 11
678.0493269383737
 21
125.3629084569749
 72
     1
 10
678.0493269383737
 20
125.3629084569749
 11
677.5493277877396
 21
125.3629084569749
 72
     4
 94
        3
 73
     0
 74
     0
 95
       12
 96
        8
 40
0.0
 40
0.0
 40
0.0
 40
0.0
 40
0.848773858862966
 40
5.614365774429131
 40
9.855139268512099
 40
12.98879271679344
 40
16.22464350110196
 40
16.22464350110196
 40
16.22464350110196
 40
16.22464350110196
 10
677.5493277877398
 20
125.3629084569749
 10
677.2941300213731
 20
125.2317732411118
 10
675.6060789695659
 20
124.3643560132174
 10
672.1560656016094
 20
125.9529012079396
 10
668.1361926233503
 20
124.317833698471
 10
664.745052966471
 20
126.0593248515121
 10
662.6259027781775
 20
125.5127838926923
 10
661.5493270277807
 20
125.2351288467619
 72
     1
 10
661.5493270277807
 20
125.2351288467619
 11
661.5493270277807
 21
124.462909985834
 72
     1
 10
661.5493270277807
 20
124.462909985834
 11
667.0493260666558
 21
124.462909985834
 72
     1
 10
667.0493260666558
 20
124.462909985834
 11
667.0493260666558
 21
123.1629103315409
 72
     1
 10
667.0493260666558
 20
123.1629103315409
 11
673.0493261188098
 21
123.1629103315409
 72
     1
 10
673.0493261188098
 20
123.1629103315409
 11
673.0493261188098
 21
124.462909985834
 97
        9
330
1C4C
330
18C2
330
18C1
330
1C86
330
18B4
330
1C4A
330
1C52
330
1C4E
330
1C53
 75
     0
 76
     1
 52
0.0
 41
0.5
 77
     0
 78
     1
 53
45.0
 43
0.0
 44
0.0
 45
-1.122532015133643
 46
1.122532015133644
 79
     0
 47
0.0351278918206705
 98
        2
 10
670.8712819832437
 20
118.6805097078115
 10
670.2036181689907
 20
123.7740543701092
1001
ACAD
1010
0.0
1020
0.0
1030
0.0
  0
ENDSEC
  0
SECTION
  2
OBJECTS
  0
DICTIONARY
  5
C
330
0
100
AcDbDictionary
281
     1
  3
ACAD_2007HEADERVARS_RT
350
1D5E
  3
ACAD_COLOR
350
225
  3
ACAD_GROUP
350
D
  3
ACAD_LAYOUT
350
1A
  3
ACAD_MATERIAL
350
224
  3
ACAD_MLEADERSTYLE
350
771
  3
ACAD_MLINESTYLE
350
17
  3
ACAD_PLOTSETTINGS
350
19
  3
ACAD_PLOTSTYLENAME
350
E
  3
ACAD_SCALELIST
350
75F
  3
ACAD_TABLESTYLE
350
226
  3
ACAD_VISUALSTYLE
350
74E
  3
ACDB_RECOMPOSE_DATA
350
D5F
  3
AcDbVariableDictionary
350
733
  0
DICTIONARY
  5
D63
330
8
100
AcDbDictionary
280
     1
281
     1
  0
DICTIONARY
  5
6F5
330
2
100
AcDbDictionary
280
     1
281
     1
  3
ACAD_LAYERFILTERS
360
6F9
  3
ACAD_LAYERSTATES
360
819
  3
ACLYDICTIONARY
360
6F8
  0
DICTIONARY
  5
D58
330
10
100
AcDbDictionary
280
     1
281
     1
  3
ADSK_XREC_LAYER_RECONCILED
360
D59
  0
DICTIONARY
  5
D5A
330
2F
100
AcDbDictionary
280
     1
281
     1
  3
ADSK_XREC_LAYER_RECONCILED
360
D5B
  0
DICTIONARY
  5
815
330
814
100
AcDbDictionary
280
     1
281
     1
  3
ADSK_XREC_LAYER_RECONCILED
360
D5C
  0
DICTIONARY
  5
B40
330
1F
100
AcDbDictionary
280
     1
281
     1
  3
ACAD_SORTENTS
360
B41
  0
DICTIONARY
  5
6E8
330
158
100
AcDbDictionary
280
     1
281
     1
  0
DICTIONARY
  5
6D6
330
196
100
AcDbDictionary
280
     1
281
     1
  0
DICTIONARY
  5
1D65
330
1CC4
100
AcDbDictionary
280
     1
281
     1
  3
ACAD_MTEXT_2008_RT
360
1D66
  0
DICTIONARY
  5
1D5E
102
{ACAD_REACTORS
330
C
102
}
330
C
100
AcDbDictionary
281
     1
  3
DIMFXL
350
1D5F
  3
DIMJOGANG
350
1D60
  0
DICTIONARY
  5
225
102
{ACAD_REACTORS
330
C
102
}
330
C
100
AcDbDictionary
281
     1
  0
DICTIONARY
  5
D
102
{ACAD_REACTORS
330
C
102
}
330
C
100
AcDbDictionary
281
     1
  0
DICTIONARY
  5
1A
102
{ACAD_REACTORS
330
C
102
}
330
C
100
AcDbDictionary
281
     1
  3
Layout1
350
1E
  3
Layout2
350
26
  3
Model
350
22
  0
DICTIONARY
  5
224
102
{ACAD_REACTORS
330
C
102
}
330
C
100
AcDbDictionary
281
     1
  3
ByBlock
350
73E
  3
ByLayer
350
736
  3
Global
350
746
  0
DICTIONARY
  5
771
102
{ACAD_REACTORS
330
C
102
}
330
C
100
AcDbDictionary
281
     1
  3
Standard
350
772
  0
DICTIONARY
  5
17
102
{ACAD_REACTORS
330
C
102
}
330
C
100
AcDbDictionary
281
     1
  3
Standard
350
18
  0
DICTIONARY
  5
19
102
{ACAD_REACTORS
330
C
102
}
330
C
100
AcDbDictionary
281
     1
  0
ACDBDICTIONARYWDFLT
  5
E
102
{ACAD_REACTORS
330
C
102
}
330
C
100
AcDbDictionary
281
     1
  3
Normal
350
F
100
AcDbDictionaryWithDefault
340
F
  0
DICTIONARY
  5
75F
102
{ACAD_REACTORS
330
C
102
}
330
C
100
AcDbDictionary
281
     1
  3
A0
350
760
  3
A1
350
761
  3
A2
350
762
  3
A3
350
763
  3
A4
350
764
  3
A5
350
765
  3
A6
350
766
  3
A7
350
767
  3
A8
350
768
  3
A9
350
769
  3
B0
350
76A
  3
B1
350
76B
  3
B2
350
76C
  3
B3
350
76D
  3
B4
350
76E
  3
B5
350
76F
  3
B6
350
770
  0
DICTIONARY
  5
226
102
{ACAD_REACTORS
330
C
102
}
330
C
100
AcDbDictionary
281
     1
  3
Standard
350
227
  0
DICTIONARY
  5
74E
102
{ACAD_REACTORS
330
C
102
}
330
C
100
AcDbDictionary
281
     1
  3
2dWireframe
350
754
  3
3D Hidden
350
756
  3
3dWireframe
350
755
  3
Basic
350
753
  3
Brighten
350
75A
  3
ColorChange
350
75E
  3
Conceptual
350
757
  3
Dim
350
759
  3
Facepattern
350
75D
  3
Flat
350
74F
  3
FlatWithEdges
350
750
  3
Gouraud
350
751
  3
GouraudWithEdges
350
752
  3
Linepattern
350
75C
  3
Realistic
350
758
  3
Thicken
350
75B
  0
XRECORD
  5
D5F
102
{ACAD_REACTORS
330
C
102
}
330
C
100
AcDbXrecord
280
     1
 90
        1
330
227
  0
DICTIONARY
  5
733
102
{ACAD_REACTORS
330
C
102
}
330
C
100
AcDbDictionary
281
     1
  3
CANNOSCALE
350
D70
  3
CMLEADERSTYLE
350
D6F
  3
CTABLESTYLE
350
734
  0
DICTIONARY
  5
6F9
102
{ACAD_REACTORS
330
6F5
102
}
330
6F5
100
AcDbDictionary
281
     1
  0
DICTIONARY
  5
819
102
{ACAD_REACTORS
330
6F5
102
}
330
6F5
100
AcDbDictionary
281
     1
  0
DICTIONARY
  5
6F8
102
{ACAD_REACTORS
330
6F5
102
}
330
6F5
100
AcDbDictionary
281
     1
1001
ACAD
1000
<All
  0
XRECORD
  5
D59
102
{ACAD_REACTORS
330
D58
102
}
330
D58
100
AcDbXrecord
280
     1
290
     1
  0
XRECORD
  5
D5B
102
{ACAD_REACTORS
330
D5A
102
}
330
D5A
100
AcDbXrecord
280
     1
290
     1
  0
XRECORD
  5
D5C
102
{ACAD_REACTORS
330
815
102
}
330
815
100
AcDbXrecord
280
     1
290
     1
  0
SORTENTSTABLE
  5
B41
102
{ACAD_REACTORS
330
B40
102
}
330
B40
100
AcDbSortentsTable
330
1F
331
13E4
  5
13E4
331
1423
  5
1423
331
136E
  5
136E
331
13AD
  5
13AD
331
1278
  5
1278
331
1337
  5
1337
331
13EC
  5
13EC
331
142B
  5
142B
331
1376
  5
1376
331
13B5
  5
13B5
331
1280
  5
1280
331
133F
  5
133F
331
13F4
  5
13F4
331
137E
  5
137E
331
13BD
  5
13BD
331
1288
  5
1288
331
1347
  5
1347
331
13FC
  5
13FC
331
1386
  5
1386
331
1B65
  5
1B74
331
1AC6
  5
1AC7
331
1C4C
  5
1C4D
331
1A48
  5
1A49
331
18BC
  5
18BD
331
1A11
  5
1A12
331
1ACE
  5
1ACF
331
11F8
  5
11F8
331
1182
  5
1182
331
11C1
  5
11C1
331
1A8F
  5
1A90
331
1A50
  5
1A51
331
1A19
  5
1A1A
331
18C4
  5
18C5
331
188D
  5
188D
331
19DA
  5
19DB
331
1200
  5
1200
331
123F
  5
123F
331
118A
  5
118A
331
11C9
  5
11C9
331
1153
  5
1153
331
1A97
  5
1A98
331
1A58
  5
1A59
331
1A21
  5
1A22
331
1895
  5
1895
331
19E2
  5
19E3
331
1208
  5
1208
331
1247
  5
1247
331
1192
  5
1192
331
11D1
  5
11D1
331
115B
  5
115B
331
1A9F
  5
1AA0
331
1A60
  5
1A61
331
19EA
  5
19EB
331
1210
  5
1210
331
124F
  5
124F
331
119A
  5
119A
331
1251
  5
1251
331
1290
  5
1290
331
1404
  5
1404
331
13C5
  5
13C5
331
138E
  5
138E
331
134F
  5
134F
331
1298
  5
1298
331
1259
  5
1259
331
140C
  5
140C
331
13CD
  5
13CD
331
1396
  5
1396
331
1357
  5
1357
331
1261
  5
1261
331
12A0
  5
12A0
331
1414
  5
1414
331
13D5
  5
13D5
331
139E
  5
139E
331
135F
  5
135F
331
1269
  5
1269
331
12A8
  5
12A8
331
13DD
  5
13DD
331
141C
  5
141C
331
1367
  5
1367
331
13A6
  5
13A6
331
1C9C
  5
1C9E
331
1AA7
  5
1AA8
331
1B0E
  5
1B0F
331
1A29
  5
1A2A
331
1A68
  5
1A69
331
189D
  5
189D
331
19F2
  5
19F3
331
16FE
  5
16FE
331
1AAF
  5
1AB0
331
1218
  5
1218
331
11D9
  5
11D9
331
11A2
  5
11A2
331
1163
  5
1163
331
1A31
  5
1A32
331
1A70
  5
1A71
331
18A5
  5
18A5
331
19BB
  5
19BC
331
19FA
  5
19FB
331
1AB7
  5
1AB8
331
1220
  5
1220
331
11E1
  5
11E1
331
11AA
  5
11AA
331
116B
  5
116B
331
1A39
  5
1A3A
331
1A78
  5
1A79
331
1ABF
  5
1AC0
331
1C45
  5
1C46
331
18AD
  5
18AD
331
19C3
  5
19C4
331
1A02
  5
1A03
331
1228
  5
1228
331
11E9
  5
11E9
331
11B2
  5
11B2
331
1A80
  5
1A81
331
1A41
  5
1A42
331
1A0A
  5
1A0B
331
19CB
  5
19CC
331
1173
  5
1173
331
18B5
  5
18B6
331
11F1
  5
11F1
331
1230
  5
1230
331
117B
  5
117B
331
11BA
  5
11BA
331
1271
  5
1271
331
13E5
  5
13E5
331
1424
  5
1424
331
136F
  5
136F
331
13AE
  5
13AE
331
1279
  5
1279
331
1338
  5
1338
331
13ED
  5
13ED
331
142C
  5
142C
331
1377
  5
1377
331
13B6
  5
13B6
331
1281
  5
1281
331
1340
  5
1340
331
13F5
  5
13F5
331
137F
  5
137F
331
13BE
  5
13BE
331
1289
  5
1289
331
13FD
  5
13FD
331
1387
  5
1387
331
1AC7
  5
1AC8
331
1A88
  5
1A89
331
1A49
  5
1A4A
331
1A12
  5
1A13
331
1ACF
  5
1B0C
331
18BD
  5
18BE
331
11F9
  5
11F9
331
1238
  5
1238
331
1183
  5
1183
331
11C2
  5
11C2
331
1A90
  5
1A91
331
1A51
  5
1A52
331
1A1A
  5
1A1B
331
19DB
  5
19DC
331
114C
  5
114C
331
18C5
  5
18C6
331
188E
  5
188E
331
1201
  5
1201
331
1240
  5
1240
331
118B
  5
118B
331
11CA
  5
11CA
331
1A98
  5
1A99
331
1A59
  5
1A5A
331
1A22
  5
1A23
331
19E3
  5
19E4
331
1154
  5
1154
331
1896
  5
1896
331
1209
  5
1209
331
1248
  5
1248
331
1193
  5
1193
331
11D2
  5
11D2
331
1A61
  5
1A62
331
19EB
  5
19EC
331
115C
  5
115C
331
1211
  5
1211
331
119B
  5
119B
331
1348
  5
1348
331
1252
  5
1252
331
1291
  5
1291
331
1405
  5
1405
331
13C6
  5
13C6
331
1350
  5
1350
331
138F
  5
138F
331
1299
  5
1299
331
125A
  5
125A
331
140D
  5
140D
331
13CE
  5
13CE
331
1397
  5
1397
331
1358
  5
1358
331
1262
  5
1262
331
12A1
  5
12A1
331
1415
  5
1415
331
13D6
  5
13D6
331
12A9
  5
12A9
331
1360
  5
1360
331
139F
  5
139F
331
126A
  5
126A
331
141D
  5
141D
331
13A7
  5
13A7
331
13DE
  5
13DE
331
1AA0
  5
1AA1
331
1AA8
  5
1AA9
331
1B0F
  5
1B10
331
1C9D
  5
1C9F
331
1A2A
  5
1A2B
331
1A69
  5
1A6A
331
189E
  5
189E
331
19B4
  5
19B5
331
19F3
  5
19F4
331
1AB0
  5
1AB1
331
1219
  5
1219
331
11DA
  5
11DA
331
11A3
  5
11A3
331
1A32
  5
1A33
331
1A71
  5
1A72
331
18A6
  5
18A6
331
19BC
  5
19BD
331
19FB
  5
19FC
331
1AB8
  5
1AB9
331
1164
  5
1164
331
1221
  5
1221
331
11E2
  5
11E2
331
11AB
  5
11AB
331
1A3A
  5
1A3B
331
1A79
  5
1A7A
331
18AE
  5
18AE
331
19C4
  5
19C5
331
1A03
  5
1A04
331
1C46
  5
1C47
331
116C
  5
116C
331
1229
  5
1229
331
11EA
  5
11EA
331
11B3
  5
11B3
331
1A81
  5
1A82
331
1A42
  5
1A43
331
1A0B
  5
1A0C
331
18B6
  5
18B7
331
19CC
  5
19CD
331
1174
  5
1174
331
11F2
  5
11F2
331
1231
  5
1231
331
117C
  5
117C
331
11BB
  5
11BB
331
1368
  5
1368
331
1272
  5
1272
331
13E6
  5
13E6
331
1425
  5
1425
331
1370
  5
1370
331
13AF
  5
13AF
331
127A
  5
127A
331
1339
  5
1339
331
13EE
  5
13EE
331
142D
  5
142D
331
1378
  5
1378
331
13B7
  5
13B7
331
1282
  5
1282
331
1341
  5
1341
331
13F6
  5
13F6
331
1380
  5
1380
331
128A
  5
128A
331
13BF
  5
13BF
331
13FE
  5
13FE
331
1AC0
  5
1AC1
331
1AC8
  5
1AC9
331
1C4E
  5
1C4F
331
1A89
  5
1A8A
331
1A4A
  5
1A4B
331
18BE
  5
18BF
331
1A13
  5
1A14
331
11FA
  5
11FA
331
1239
  5
1239
331
1184
  5
1184
331
11C3
  5
11C3
331
1A91
  5
1A92
331
1A52
  5
1A53
331
1A1B
  5
1A1C
331
18C6
  5
18C8
331
188F
  5
188F
331
19DC
  5
19DD
331
114D
  5
114D
331
1202
  5
1202
331
1241
  5
1241
331
118C
  5
118C
331
11CB
  5
11CB
331
1A99
  5
1A9A
331
1A5A
  5
1A5B
331
1A23
  5
1A24
331
1897
  5
1897
331
19E4
  5
19E5
331
1C86
  5
1C9A
331
1155
  5
1155
331
120A
  5
120A
331
1249
  5
1249
331
1194
  5
1194
331
11D3
  5
11D3
331
1A62
  5
1A63
331
19EC
  5
19ED
331
115D
  5
115D
331
1212
  5
1212
331
119C
  5
119C
331
1388
  5
1388
331
1349
  5
1349
331
1253
  5
1253
331
1292
  5
1292
331
1406
  5
1406
331
13C7
  5
13C7
331
1390
  5
1390
331
1351
  5
1351
331
129A
  5
129A
331
125B
  5
125B
331
140E
  5
140E
331
13CF
  5
13CF
331
1398
  5
1398
331
1359
  5
1359
331
1263
  5
1263
331
12A2
  5
12A2
331
1416
  5
1416
331
13D7
  5
13D7
331
1361
  5
1361
331
13A0
  5
13A0
331
126B
  5
126B
331
12AA
  5
12AA
331
13DF
  5
13DF
331
141E
  5
141E
331
1AA1
  5
1AA2
331
1AA9
  5
1AAA
331
1B10
  5
1B1A
331
1C9E
  5
1CA0
331
1A2B
  5
1A2C
331
1A6A
  5
1A6B
331
189F
  5
189F
331
19B5
  5
19B6
331
19F4
  5
19F5
331
1AB1
  5
1AB2
331
121A
  5
121A
331
11DB
  5
11DB
331
11A4
  5
11A4
331
1A33
  5
1A34
331
1A72
  5
1A73
331
18A7
  5
18A7
331
19BD
  5
19BE
331
19FC
  5
19FD
331
1710
  5
1710
331
1AB9
  5
1ABA
331
1165
  5
1165
331
1222
  5
1222
331
11E3
  5
11E3
331
11AC
  5
11AC
331
1A3B
  5
1A3C
331
1A7A
  5
1A7B
331
18AF
  5
18AF
331
19C5
  5
19C6
331
1A04
  5
1A05
331
1C47
  5
1C48
331
116D
  5
116D
331
122A
  5
122A
331
11EB
  5
11EB
331
11B4
  5
11B4
331
DE6
  5
DE6
331
1A82
  5
1A83
331
1A43
  5
1A44
331
1A0C
  5
1A0D
331
18B7
  5
18B8
331
19CD
  5
19CE
331
1175
  5
1175
331
11F3
  5
11F3
331
1232
  5
1232
331
117D
  5
117D
331
11BC
  5
11BC
331
1369
  5
1369
331
1273
  5
1273
331
13A8
  5
13A8
331
13E7
  5
13E7
331
1426
  5
1426
331
1371
  5
1371
331
13B0
  5
13B0
331
127B
  5
127B
331
133A
  5
133A
331
13EF
  5
13EF
331
142E
  5
142E
331
1379
  5
1379
331
13B8
  5
13B8
331
1283
  5
1283
331
1342
  5
1342
331
13F7
  5
13F7
331
1381
  5
1381
331
128B
  5
128B
331
13FF
  5
13FF
331
1AC1
  5
1AC2
331
1AC9
  5
1ACA
331
1C4F
  5
1C50
331
1A8A
  5
1A8B
331
1A4B
  5
1A4C
331
18BF
  5
18C1
331
1A14
  5
1A15
331
11FB
  5
11FB
331
123A
  5
123A
331
1185
  5
1185
331
11C4
  5
11C4
331
1A92
  5
1A93
331
1A53
  5
1A54
331
1A1C
  5
1A1D
331
1890
  5
1890
331
19DD
  5
19DE
331
114E
  5
114E
331
1203
  5
1203
331
1242
  5
1242
331
118D
  5
118D
331
11CC
  5
11CC
331
1A9A
  5
1A9B
331
1A5B
  5
1A5C
331
1A24
  5
1A25
331
19E5
  5
19E6
331
1156
  5
1156
331
120B
  5
120B
331
124A
  5
124A
331
1195
  5
1195
331
11D4
  5
11D4
331
1A63
  5
1A64
331
19ED
  5
19EE
331
115E
  5
115E
331
1213
  5
1213
331
119D
  5
119D
331
13C0
  5
13C0
331
1389
  5
1389
331
134A
  5
134A
331
1254
  5
1254
331
1293
  5
1293
331
1407
  5
1407
331
13C8
  5
13C8
331
1391
  5
1391
331
1352
  5
1352
331
129B
  5
129B
331
125C
  5
125C
331
140F
  5
140F
331
13D0
  5
13D0
331
1399
  5
1399
331
135A
  5
135A
331
1264
  5
1264
331
12A3
  5
12A3
331
1417
  5
1417
331
13D8
  5
13D8
331
1362
  5
1362
331
13A1
  5
13A1
331
126C
  5
126C
331
12AB
  5
12AB
331
141F
  5
141F
331
1AA2
  5
1AA3
331
1898
  5
1898
331
1AAA
  5
1AAB
331
1C9F
  5
1CA1
331
1A2C
  5
1A2D
331
1A6B
  5
1A6C
331
18A0
  5
18A0
331
19B6
  5
19B7
331
19F5
  5
19F6
331
1709
  5
1709
331
1AB2
  5
1AB3
331
121B
  5
121B
331
11DC
  5
11DC
331
11A5
  5
11A5
331
1A34
  5
1A35
331
1A73
  5
1A74
331
18A8
  5
18A8
331
19BE
  5
19BF
331
19FD
  5
19FE
331
1711
  5
1711
331
1ABA
  5
1ABB
331
1B29
  5
1B65
331
1166
  5
1166
331
1223
  5
1223
331
11E4
  5
11E4
331
11AD
  5
11AD
331
1A3C
  5
1A3D
331
1A7B
  5
1A7C
331
18B0
  5
18B0
331
19C6
  5
19C7
331
1A05
  5
1A06
331
116E
  5
116E
331
122B
  5
122B
331
11EC
  5
11EC
331
11B5
  5
11B5
331
1A44
  5
1A45
331
1A83
  5
1A84
331
19CE
  5
19CF
331
1A0D
  5
1A0E
331
1176
  5
1176
331
1233
  5
1233
331
11BD
  5
11BD
331
11F4
  5
11F4
331
117E
  5
117E
331
13E0
  5
13E0
331
136A
  5
136A
331
1274
  5
1274
331
13A9
  5
13A9
331
13E8
  5
13E8
331
1427
  5
1427
331
1372
  5
1372
331
13B1
  5
13B1
331
127C
  5
127C
331
133B
  5
133B
331
13F0
  5
13F0
331
137A
  5
137A
331
13B9
  5
13B9
331
1284
  5
1284
331
1343
  5
1343
331
13F8
  5
13F8
331
1382
  5
1382
331
128C
  5
128C
331
1AC2
  5
1AC3
331
1C48
  5
1C49
331
18B8
  5
18B9
331
1ACA
  5
1ACB
331
1C50
  5
1C51
331
1A8B
  5
1A8C
331
1A4C
  5
1A4D
331
1889
  5
1889
331
1A15
  5
1A16
331
1C58
  5
1C99
331
11FC
  5
11FC
331
123B
  5
123B
331
1186
  5
1186
331
11C5
  5
11C5
331
114F
  5
114F
331
1A93
  5
1A94
331
1A54
  5
1A55
331
1A1D
  5
1A1E
331
18C8
  5
1963
331
1891
  5
1891
331
19DE
  5
19DF
331
1204
  5
1204
331
1243
  5
1243
331
118E
  5
118E
331
11CD
  5
11CD
331
1157
  5
1157
331
1A9B
  5
1A9C
331
1A5C
  5
1A5D
331
1A25
  5
1A26
331
19E6
  5
19E7
331
120C
  5
120C
331
124B
  5
124B
331
1196
  5
1196
331
11D5
  5
11D5
331
115F
  5
115F
331
1A64
  5
1A65
331
19EE
  5
19EF
331
1214
  5
1214
331
119E
  5
119E
331
1400
  5
1400
331
13C1
  5
13C1
331
138A
  5
138A
331
134B
  5
134B
331
1255
  5
1255
331
1294
  5
1294
331
1408
  5
1408
331
13C9
  5
13C9
331
1392
  5
1392
331
1353
  5
1353
331
129C
  5
129C
331
125D
  5
125D
331
1410
  5
1410
331
13D1
  5
13D1
331
139A
  5
139A
331
135B
  5
135B
331
1265
  5
1265
331
12A4
  5
12A4
331
13D9
  5
13D9
331
1418
  5
1418
331
1363
  5
1363
331
126D
  5
126D
331
13A2
  5
13A2
331
1AA3
  5
1AA4
331
1899
  5
1899
331
1CA0
  5
1CA2
331
16FA
  5
16FA
331
1AAB
  5
1AAC
331
1A2D
  5
1A2E
331
1A6C
  5
1A6D
331
18A1
  5
18A1
331
19B7
  5
19B8
331
19F6
  5
19F7
331
170A
  5
170A
331
1AB3
  5
1AB4
331
1B1A
  5
1B29
331
121C
  5
121C
331
11DD
  5
11DD
331
11A6
  5
11A6
331
1167
  5
1167
331
1A35
  5
1A36
331
1A74
  5
1A75
331
19BF
  5
19C0
331
19FE
  5
19FF
331
18A9
  5
18A9
331
1ABB
  5
1ABC
331
1712
  5
1712
331
1970
  5
19B4
331
1224
  5
1224
331
11E5
  5
11E5
331
11AE
  5
11AE
331
116F
  5
116F
331
1A3D
  5
1A3E
331
1A7C
  5
1A7D
331
18B1
  5
18B1
331
19C7
  5
19C8
331
1A06
  5
1A07
331
122C
  5
122C
331
11ED
  5
11ED
331
11B6
  5
11B6
331
1A84
  5
1A85
331
1A45
  5
1A46
331
1A0E
  5
1A0F
331
19CF
  5
19D0
331
1177
  5
1177
331
11F5
  5
11F5
331
1234
  5
1234
331
117F
  5
117F
331
11BE
  5
11BE
331
13E1
  5
13E1
331
1420
  5
1420
331
136B
  5
136B
331
13AA
  5
13AA
331
1275
  5
1275
331
13E9
  5
13E9
331
1428
  5
1428
331
1373
  5
1373
331
13B2
  5
13B2
331
127D
  5
127D
331
133C
  5
133C
331
13F1
  5
13F1
331
137B
  5
137B
331
13BA
  5
13BA
331
1285
  5
1285
331
1344
  5
1344
331
13F9
  5
13F9
331
1383
  5
1383
331
128D
  5
128D
331
1AC3
  5
1AC4
331
1ACB
  5
1ACC
331
18B9
  5
18BA
331
1A8C
  5
1A8D
331
1A4D
  5
1A4E
331
1A16
  5
1A17
331
18C1
  5
18C2
331
188A
  5
188A
331
11FD
  5
11FD
331
123C
  5
123C
331
1187
  5
1187
331
11C6
  5
11C6
331
1A94
  5
1A95
331
1A55
  5
1A56
331
1A1E
  5
1A1F
331
19DF
  5
19E0
331
1150
  5
1150
331
1892
  5
1892
331
1205
  5
1205
331
1244
  5
1244
331
118F
  5
118F
331
11CE
  5
11CE
331
1A9C
  5
1A9D
331
1A5D
  5
1A5E
331
1A26
  5
1A27
331
19E7
  5
19E8
331
1158
  5
1158
331
120D
  5
120D
331
124C
  5
124C
331
1A65
  5
1A66
331
19EF
  5
19F0
331
1197
  5
1197
331
11D6
  5
11D6
331
1215
  5
1215
331
119F
  5
119F
331
1401
  5
1401
331
13C2
  5
13C2
331
134C
  5
134C
331
138B
  5
138B
331
1256
  5
1256
331
1295
  5
1295
331
1409
  5
1409
331
13CA
  5
13CA
331
1354
  5
1354
331
1393
  5
1393
331
129D
  5
129D
331
125E
  5
125E
331
1411
  5
1411
331
13D2
  5
13D2
331
135C
  5
135C
331
139B
  5
139B
331
1266
  5
1266
331
12A5
  5
12A5
331
1419
  5
1419
331
13A3
  5
13A3
331
13DA
  5
13DA
331
1364
  5
1364
331
126E
  5
126E
331
1B8A
  5
1BAC
331
1AA4
  5
1AA5
331
1C99
  5
1C9B
331
189A
  5
189A
331
16FB
  5
16FB
331
1AAC
  5
1AAD
331
1CA1
  5
1CA3
331
1A2E
  5
1A2F
331
1A6D
  5
1A6E
331
18A2
  5
18A2
331
19B8
  5
19B9
331
19F7
  5
19F8
331
170B
  5
170B
331
1AB4
  5
1AB5
331
1CB9
  5
18B4
331
1160
  5
1160
331
121D
  5
121D
331
11DE
  5
11DE
331
11A7
  5
11A7
331
1A36
  5
1A37
331
1A75
  5
1A76
331
18AA
  5
18AA
331
19C0
  5
19C1
331
19FF
  5
1A00
331
1ABC
  5
1ABD
331
1C42
  5
1C43
331
1168
  5
1168
331
1225
  5
1225
331
11E6
  5
11E6
331
11AF
  5
11AF
331
1A3E
  5
1A3F
331
1A7D
  5
1A7E
331
1A07
  5
1A08
331
18B2
  5
18B2
331
19C8
  5
19C9
331
1170
  5
1170
331
122D
  5
122D
331
11EE
  5
11EE
331
11B7
  5
11B7
331
1A85
  5
1A86
331
1A46
  5
1A47
331
1A0F
  5
1A10
331
1178
  5
1178
331
11F6
  5
11F6
331
1235
  5
1235
331
11BF
  5
11BF
331
13E2
  5
13E2
331
1421
  5
1421
331
136C
  5
136C
331
13AB
  5
13AB
331
1276
  5
1276
331
13EA
  5
13EA
331
1429
  5
1429
331
1374
  5
1374
331
13B3
  5
13B3
331
127E
  5
127E
331
133D
  5
133D
331
13F2
  5
13F2
331
137C
  5
137C
331
13BB
  5
13BB
331
1286
  5
1286
331
1345
  5
1345
331
13FA
  5
13FA
331
1384
  5
1384
331
128E
  5
128E
331
1AC4
  5
1AC5
331
1C4A
  5
1C4B
331
18BA
  5
18BB
331
19D0
  5
19D8
331
1ACC
  5
1ACD
331
1C52
  5
1C54
331
1A8D
  5
1A8E
331
1A4E
  5
1A4F
331
1A17
  5
1A18
331
18C2
  5
18C3
331
188B
  5
188B
331
19D8
  5
19D9
331
1180
  5
1180
331
11FE
  5
11FE
331
123D
  5
123D
331
1188
  5
1188
331
11C7
  5
11C7
331
1A95
  5
1A96
331
1A56
  5
1A57
331
1A1F
  5
1A20
331
1893
  5
1893
331
19E0
  5
19E1
331
1151
  5
1151
331
1206
  5
1206
331
1245
  5
1245
331
1190
  5
1190
331
11CF
  5
11CF
331
1A9D
  5
1A9E
331
1A5E
  5
1A5F
331
1A27
  5
1A28
331
19E8
  5
19E9
331
1159
  5
1159
331
120E
  5
120E
331
124D
  5
124D
331
1A66
  5
1A67
331
1198
  5
1198
331
11D7
  5
11D7
331
1216
  5
1216
331
1402
  5
1402
331
13C3
  5
13C3
331
138C
  5
138C
331
134D
  5
134D
331
1257
  5
1257
331
1296
  5
1296
331
140A
  5
140A
331
13CB
  5
13CB
331
1394
  5
1394
331
1355
  5
1355
331
129E
  5
129E
331
125F
  5
125F
331
1412
  5
1412
331
13D3
  5
13D3
331
139C
  5
139C
331
135D
  5
135D
331
1267
  5
1267
331
12A6
  5
12A6
331
13DB
  5
13DB
331
141A
  5
141A
331
1365
  5
1365
331
126F
  5
126F
331
13A4
  5
13A4
331
1AA5
  5
1AA6
331
1B0C
  5
1B0D
331
1C9A
  5
1C9C
331
189B
  5
189B
331
19F0
  5
19F1
331
16FC
  5
16FC
331
1AAD
  5
1AAE
331
1CA2
  5
1CA4
331
11A0
  5
11A0
331
1A2F
  5
1A30
331
1A6E
  5
1A6F
331
18A3
  5
18A3
331
19B9
  5
19BA
331
170C
  5
170C
331
19F8
  5
19F9
331
1AB5
  5
1AB6
331
1161
  5
1161
331
121E
  5
121E
331
11DF
  5
11DF
331
11A8
  5
11A8
331
1A37
  5
1A38
331
1A76
  5
1A77
331
18AB
  5
18AB
331
19C1
  5
19C2
331
1A00
  5
1A01
331
1ABD
  5
1ABE
331
1169
  5
1169
331
1226
  5
1226
331
11E7
  5
11E7
331
11B0
  5
11B0
331
1A3F
  5
1A40
331
1A7E
  5
1A7F
331
1A08
  5
1A09
331
19C9
  5
19CA
331
1171
  5
1171
331
122E
  5
122E
331
11EF
  5
11EF
331
1A86
  5
1A87
331
1A47
  5
1A48
331
1179
  5
1179
331
11B8
  5
11B8
331
11F7
  5
11F7
331
1236
  5
1236
331
13E3
  5
13E3
331
1422
  5
1422
331
136D
  5
136D
331
13AC
  5
13AC
331
1277
  5
1277
331
1336
  5
1336
331
13EB
  5
13EB
331
142A
  5
142A
331
1375
  5
1375
331
13B4
  5
13B4
331
127F
  5
127F
331
133E
  5
133E
331
13F3
  5
13F3
331
137D
  5
137D
331
13BC
  5
13BC
331
1287
  5
1287
331
1346
  5
1346
331
13FB
  5
13FB
331
1385
  5
1385
331
128F
  5
128F
331
1AC5
  5
1AC6
331
18BB
  5
18BC
331
1A10
  5
1A11
331
1ACD
  5
1ACE
331
1C53
  5
1C55
331
1A8E
  5
1A8F
331
1A4F
  5
1A50
331
1A18
  5
1A19
331
18C3
  5
18C4
331
188C
  5
188C
331
19D9
  5
19DA
331
1B74
  5
1B8A
331
1181
  5
1181
331
11C0
  5
11C0
331
11FF
  5
11FF
331
123E
  5
123E
331
1189
  5
1189
331
11C8
  5
11C8
331
1A96
  5
1A97
331
1A57
  5
1A58
331
1A20
  5
1A21
331
1894
  5
1894
331
19E1
  5
19E2
331
1152
  5
1152
331
1207
  5
1207
331
1246
  5
1246
331
1191
  5
1191
331
11D0
  5
11D0
331
1A9E
  5
1A9F
331
1A5F
  5
1A60
331
19E9
  5
19EA
331
115A
  5
115A
331
120F
  5
120F
331
124E
  5
124E
331
1A67
  5
1A68
331
1199
  5
1199
331
1217
  5
1217
331
1250
  5
1250
331
1403
  5
1403
331
13C4
  5
13C4
331
138D
  5
138D
331
134E
  5
134E
331
1258
  5
1258
331
1297
  5
1297
331
140B
  5
140B
331
13CC
  5
13CC
331
1395
  5
1395
331
1356
  5
1356
331
129F
  5
129F
331
1260
  5
1260
331
1413
  5
1413
331
13D4
  5
13D4
331
139D
  5
139D
331
135E
  5
135E
331
1268
  5
1268
331
12A7
  5
12A7
331
13DC
  5
13DC
331
141B
  5
141B
331
1366
  5
1366
331
13A5
  5
13A5
331
1AA6
  5
1AA7
331
1B0D
  5
1B0E
331
1C9B
  5
1C9D
331
1A28
  5
1A29
331
189C
  5
189C
331
19F1
  5
19F2
331
16FD
  5
16FD
331
1BAC
  5
1C42
331
1AAE
  5
1AAF
331
1CA3
  5
1C52
331
11D8
  5
11D8
331
11A1
  5
11A1
331
1A30
  5
1A31
331
1A6F
  5
1A70
331
19BA
  5
19BB
331
19F9
  5
19FA
331
18A4
  5
18A4
331
1AB6
  5
1AB7
331
1963
  5
1970
331
1162
  5
1162
331
121F
  5
121F
331
11E0
  5
11E0
331
11A9
  5
11A9
331
1A38
  5
1A39
331
1A77
  5
1A78
331
18AC
  5
18AC
331
19C2
  5
19C3
331
1A01
  5
1A02
331
1ABE
  5
1ABF
331
116A
  5
116A
331
1227
  5
1227
331
11E8
  5
11E8
331
11B1
  5
11B1
331
1A7F
  5
1A80
331
1A40
  5
1A41
331
18B4
  5
18B5
331
19CA
  5
19CB
331
1A09
  5
1A0A
331
1172
  5
1172
331
122F
  5
122F
331
11B9
  5
11B9
331
11F0
  5
11F0
331
1A87
  5
1A88
331
117A
  5
117A
331
1237
  5
1237
331
1270
  5
1270
  0
XRECORD
  5
1D66
102
{ACAD_REACTORS
330
1D65
102
}
330
1D65
100
AcDbXrecord
280
     1
 40
88000.0
  1
2{\fProxy 1|b0|i0|c204|p0;hole} \U+22053,6/%%c6x7
  0
XRECORD
  5
1D5F
102
{ACAD_REACTORS
330
1D5E
102
}
330
1D5E
100
AcDbXrecord
280
     1
 40
1.25
  0
XRECORD
  5
1D60
102
{ACAD_REACTORS
330
1D5E
102
}
330
1D5E
100
AcDbXrecord
280
     1
 40
1.570796326794896
  0
LAYOUT
  5
1E
102
{ACAD_REACTORS
330
1A
102
}
330
1A
100
AcDbPlotSettings
  1

  2

  4

  6

 40
0.0
 41
0.0
 42
0.0
 43
0.0
 44
0.0
 45
0.0
 46
0.0
 47
0.0
 48
0.0
 49
0.0
140
0.0
141
0.0
142
1.0
143
1.0
 70
   688
 72
     0
 73
     0
 74
     5
  7

 75
    16
147
1.0
 76
     0
 77
     2
 78
   300
148
0.0
149
0.0
100
AcDbLayout
  1
Layout1
 70
     1
 71
     1
 10
0.0
 20
0.0
 11
420.0
 21
297.0
 12
0.0
 22
0.0
 32
0.0
 14
1.000000000000000E+20
 24
1.000000000000000E+20
 34
1.000000000000000E+20
 15
-1.000000000000000E+20
 25
-1.000000000000000E+20
 35
-1.000000000000000E+20
146
0.0
 13
0.0
 23
0.0
 33
0.0
 16
1.0
 26
0.0
 36
0.0
 17
0.0
 27
1.0
 37
0.0
 76
     0
330
1B
  0
LAYOUT
  5
26
102
{ACAD_REACTORS
330
1A
102
}
330
1A
100
AcDbPlotSettings
  1

  2

  4

  6

 40
0.0
 41
0.0
 42
0.0
 43
0.0
 44
0.0
 45
0.0
 46
0.0
 47
0.0
 48
0.0
 49
0.0
140
0.0
141
0.0
142
1.0
143
1.0
 70
   688
 72
     0
 73
     0
 74
     5
  7

 75
    16
147
1.0
 76
     0
 77
     2
 78
   300
148
0.0
149
0.0
100
AcDbLayout
  1
Layout2
 70
     1
 71
     2
 10
0.0
 20
0.0
 11
0.0
 21
0.0
 12
0.0
 22
0.0
 32
0.0
 14
0.0
 24
0.0
 34
0.0
 15
0.0
 25
0.0
 35
0.0
146
0.0
 13
0.0
 23
0.0
 33
0.0
 16
1.0
 26
0.0
 36
0.0
 17
0.0
 27
1.0
 37
0.0
 76
     0
330
23
  0
LAYOUT
  5
22
102
{ACAD_REACTORS
330
1A
102
}
330
1A
100
AcDbPlotSettings
  1

  2

  4

  6

 40
0.0
 41
0.0
 42
0.0
 43
0.0
 44
0.0
 45
0.0
 46
0.0
 47
0.0
 48
0.0
 49
0.0
140
0.0
141
0.0
142
1.0
143
1.0
 70
  1712
 72
     0
 73
     0
 74
     0
  7

 75
     0
147
1.0
 76
     0
 77
     2
 78
   300
148
0.0
149
0.0
100
AcDbLayout
  1
Model
 70
     1
 71
     0
 10
0.0
 20
0.0
 11
0.0
 21
0.0
 12
0.0
 22
0.0
 32
0.0
 14
0.0
 24
0.0
 34
0.0
 15
210.0
 25
297.0
 35
0.0
146
0.0
 13
0.0
 23
0.0
 33
0.0
 16
1.0
 26
0.0
 36
0.0
 17
0.0
 27
1.0
 37
0.0
 76
     0
330
1F
331
732
  0
MATERIAL
  5
73E
102
{ACAD_XDICTIONARY
360
73F
102
}
102
{ACAD_REACTORS
330
224
102
}
330
224
100
AcDbMaterial
  1
ByBlock
 72
     0
 43
0.0008202099737533
 43
0.0
 43
0.0
 43
0.0
 43
0.0
 43
0.0008202099737533
 43
0.0
 43
0.0
 43
0.0
 43
0.0
 43
1.0
 43
0.0
 43
0.0
 43
0.0
 43
0.0
 43
1.0
 77
     0
 47
0.0008202099737533
 47
0.0
 47
0.0
 47
0.0
 47
0.0
 47
0.0008202099737533
 47
0.0
 47
0.0
 47
0.0
 47
0.0
 47
1.0
 47
0.0
 47
0.0
 47
0.0
 47
0.0
 47
1.0
171
     0
 49
0.0008202099737533
 49
0.0
 49
0.0
 49
0.0
 49
0.0
 49
0.0008202099737533
 49
0.0
 49
0.0
 49
0.0
 49
0.0
 49
1.0
 49
0.0
 49
0.0
 49
0.0
 49
0.0
 49
1.0
175
     0
142
0.0008202099737533
142
0.0
142
0.0
142
0.0
142
0.0
142
0.0008202099737533
142
0.0
142
0.0
142
0.0
142
0.0
142
1.0
142
0.0
142
0.0
142
0.0
142
0.0
142
1.0
179
     0
144
0.0008202099737533
144
0.0
144
0.0
144
0.0
144
0.0
144
0.0008202099737533
144
0.0
144
0.0
144
0.0
144
0.0
144
1.0
144
0.0
144
0.0
144
0.0
144
0.0
144
1.0
147
0.0008202099737533
147
0.0
147
0.0
147
0.0
147
0.0
147
0.0008202099737533
147
0.0
147
0.0
147
0.0
147
0.0
147
1.0
147
0.0
147
0.0
147
0.0
147
0.0
147
1.0
  0
MATERIAL
  5
736
102
{ACAD_XDICTIONARY
360
737
102
}
102
{ACAD_REACTORS
330
224
102
}
330
224
100
AcDbMaterial
  1
ByLayer
 72
     0
 43
0.0008202099737533
 43
0.0
 43
0.0
 43
0.0
 43
0.0
 43
0.0008202099737533
 43
0.0
 43
0.0
 43
0.0
 43
0.0
 43
1.0
 43
0.0
 43
0.0
 43
0.0
 43
0.0
 43
1.0
 77
     0
 47
0.0008202099737533
 47
0.0
 47
0.0
 47
0.0
 47
0.0
 47
0.0008202099737533
 47
0.0
 47
0.0
 47
0.0
 47
0.0
 47
1.0
 47
0.0
 47
0.0
 47
0.0
 47
0.0
 47
1.0
171
     0
 49
0.0008202099737533
 49
0.0
 49
0.0
 49
0.0
 49
0.0
 49
0.0008202099737533
 49
0.0
 49
0.0
 49
0.0
 49
0.0
 49
1.0
 49
0.0
 49
0.0
 49
0.0
 49
0.0
 49
1.0
175
     0
142
0.0008202099737533
142
0.0
142
0.0
142
0.0
142
0.0
142
0.0008202099737533
142
0.0
142
0.0
142
0.0
142
0.0
142
1.0
142
0.0
142
0.0
142
0.0
142
0.0
142
1.0
179
     0
144
0.0008202099737533
144
0.0
144
0.0
144
0.0
144
0.0
144
0.0008202099737533
144
0.0
144
0.0
144
0.0
144
0.0
144
1.0
144
0.0
144
0.0
144
0.0
144
0.0
144
1.0
147
0.0008202099737533
147
0.0
147
0.0
147
0.0
147
0.0
147
0.0008202099737533
147
0.0
147
0.0
147
0.0
147
0.0
147
1.0
147
0.0
147
0.0
147
0.0
147
0.0
147
1.0
  0
MATERIAL
  5
746
102
{ACAD_XDICTIONARY
360
747
102
}
102
{ACAD_REACTORS
330
224
102
}
330
224
100
AcDbMaterial
  1
Global
 72
     0
 43
0.0008202099737533
 43
0.0
 43
0.0
 43
0.0
 43
0.0
 43
0.0008202099737533
 43
0.0
 43
0.0
 43
0.0
 43
0.0
 43
1.0
 43
0.0
 43
0.0
 43
0.0
 43
0.0
 43
1.0
 77
     0
 47
0.0008202099737533
 47
0.0
 47
0.0
 47
0.0
 47
0.0
 47
0.0008202099737533
 47
0.0
 47
0.0
 47
0.0
 47
0.0
 47
1.0
 47
0.0
 47
0.0
 47
0.0
 47
0.0
 47
1.0
171
     0
 49
0.0008202099737533
 49
0.0
 49
0.0
 49
0.0
 49
0.0
 49
0.0008202099737533
 49
0.0
 49
0.0
 49
0.0
 49
0.0
 49
1.0
 49
0.0
 49
0.0
 49
0.0
 49
0.0
 49
1.0
175
     0
142
0.0008202099737533
142
0.0
142
0.0
142
0.0
142
0.0
142
0.0008202099737533
142
0.0
142
0.0
142
0.0
142
0.0
142
1.0
142
0.0
142
0.0
142
0.0
142
0.0
142
1.0
179
     0
144
0.0008202099737533
144
0.0
144
0.0
144
0.0
144
0.0
144
0.0008202099737533
144
0.0
144
0.0
144
0.0
144
0.0
144
1.0
144
0.0
144
0.0
144
0.0
144
0.0
144
1.0
147
0.0008202099737533
147
0.0
147
0.0
147
0.0
147
0.0
147
0.0008202099737533
147
0.0
147
0.0
147
0.0
147
0.0
147
1.0
147
0.0
147
0.0
147
0.0
147
0.0
147
1.0
  0
MLEADERSTYLE
  5
772
102
{ACAD_REACTORS
330
771
102
}
330
771
100
AcDbMLeaderStyle
170
     2
171
     1
172
     0
 90
        2
 40
0.0
 41
0.0
173
     1
 91
-1056964608
340
14
 92
       -2
290
     1
 42
2.0
291
     1
 43
0.36
  3
Standard
 44
4.0
300

342
11
174
     1
178
     6
175
     1
176
     0
 93
-1056964608
 45
4.0
292
     0
297
     0
 46
4.0
 94
-1056964608
 47
1.0
 49
1.0
140
1.0
293
     1
141
0.0
294
     1
177
     0
142
1.0
295
     0
296
     0
143
0.125
1001
ACAD_MLEADERVER
1070
     2
  0
MLINESTYLE
  5
18
102
{ACAD_REACTORS
330
17
102
}
330
17
100
AcDbMlineStyle
  2
STANDARD
 70
     0
  3

 62
   256
 51
90.0
 52
90.0
 71
     2
 49
0.5
 62
   256
  6
BYLAYER
 49
-0.5
 62
   256
  6
BYLAYER
  0
ACDBPLACEHOLDER
  5
F
102
{ACAD_REACTORS
330
E
102
}
330
E
  0
SCALE
  5
760
102
{ACAD_REACTORS
330
75F
102
}
330
75F
100
AcDbScale
 70
     0
300
1:1
140
1.0
141
1.0
290
     1
  0
SCALE
  5
761
102
{ACAD_REACTORS
330
75F
102
}
330
75F
100
AcDbScale
 70
     0
300
1:2
140
1.0
141
2.0
290
     0
  0
SCALE
  5
762
102
{ACAD_REACTORS
330
75F
102
}
330
75F
100
AcDbScale
 70
     0
300
1:4
140
1.0
141
4.0
290
     0
  0
SCALE
  5
763
102
{ACAD_REACTORS
330
75F
102
}
330
75F
100
AcDbScale
 70
     0
300
1:5
140
1.0
141
5.0
290
     0
  0
SCALE
  5
764
102
{ACAD_REACTORS
330
75F
102
}
330
75F
100
AcDbScale
 70
     0
300
1:8
140
1.0
141
8.0
290
     0
  0
SCALE
  5
765
102
{ACAD_REACTORS
330
75F
102
}
330
75F
100
AcDbScale
 70
     0
300
1:10
140
1.0
141
10.0
290
     0
  0
SCALE
  5
766
102
{ACAD_REACTORS
330
75F
102
}
330
75F
100
AcDbScale
 70
     0
300
1:16
140
1.0
141
16.0
290
     0
  0
SCALE
  5
767
102
{ACAD_REACTORS
330
75F
102
}
330
75F
100
AcDbScale
 70
     0
300
1:20
140
1.0
141
20.0
290
     0
  0
SCALE
  5
768
102
{ACAD_REACTORS
330
75F
102
}
330
75F
100
AcDbScale
 70
     0
300
1:30
140
1.0
141
30.0
290
     0
  0
SCALE
  5
769
102
{ACAD_REACTORS
330
75F
102
}
330
75F
100
AcDbScale
 70
     0
300
1:40
140
1.0
141
40.0
290
     0
  0
SCALE
  5
76A
102
{ACAD_REACTORS
330
75F
102
}
330
75F
100
AcDbScale
 70
     0
300
1:50
140
1.0
141
50.0
290
     0
  0
SCALE
  5
76B
102
{ACAD_REACTORS
330
75F
102
}
330
75F
100
AcDbScale
 70
     0
300
1:100
140
1.0
141
100.0
290
     0
  0
SCALE
  5
76C
102
{ACAD_REACTORS
330
75F
102
}
330
75F
100
AcDbScale
 70
     0
300
2:1
140
2.0
141
1.0
290
     0
  0
SCALE
  5
76D
102
{ACAD_REACTORS
330
75F
102
}
330
75F
100
AcDbScale
 70
     0
300
4:1
140
4.0
141
1.0
290
     0
  0
SCALE
  5
76E
102
{ACAD_REACTORS
330
75F
102
}
330
75F
100
AcDbScale
 70
     0
300
8:1
140
8.0
141
1.0
290
     0
  0
SCALE
  5
76F
102
{ACAD_REACTORS
330
75F
102
}
330
75F
100
AcDbScale
 70
     0
300
10:1
140
10.0
141
1.0
290
     0
  0
SCALE
  5
770
102
{ACAD_REACTORS
330
75F
102
}
330
75F
100
AcDbScale
 70
     0
300
100:1
140
100.0
141
1.0
290
     0
  0
TABLESTYLE
  5
227
102
{ACAD_XDICTIONARY
360
D5D
102
}
102
{ACAD_REACTORS
330
226
102
}
330
226
100
AcDbTableStyle
  3
Standard
 70
     0
 71
     0
 40
1.5
 41
1.5
280
     0
281
     0
  7
Standard
140
4.5
170
     2
 62
     0
 63
     7
283
     0
274
    -2
284
     1
 64
     0
275
    -2
285
     1
 65
     0
276
    -2
286
     1
 66
     0
277
    -2
287
     1
 67
     0
278
    -2
288
     1
 68
     0
279
    -2
289
     1
 69
     0
  7
Standard
140
6.0
170
     5
 62
     0
 63
     7
283
     0
274
    -2
284
     1
 64
     0
275
    -2
285
     1
 65
     0
276
    -2
286
     1
 66
     0
277
    -2
287
     1
 67
     0
278
    -2
288
     1
 68
     0
279
    -2
289
     1
 69
     0
  7
Standard
140
4.5
170
     5
 62
     0
 63
     7
283
     0
274
    -2
284
     1
 64
     0
275
    -2
285
     1
 65
     0
276
    -2
286
     1
 66
     0
277
    -2
287
     1
 67
     0
278
    -2
288
     1
 68
     0
279
    -2
289
     1
 69
     0
  0
VISUALSTYLE
  5
754
102
{ACAD_REACTORS
330
74E
102
}
330
74E
100
AcDbVisualStyle
  2
2dWireframe
 70
     4
 71
     0
 72
     2
 73
     0
 90
        0
 40
-0.6
 41
-30.0
 62
     5
 63
     7
421
 16777215
 74
     1
 91
        4
 64
     7
 65
   257
 75
     1
175
     1
 42
1.0
 92
        0
 66
   257
 43
1.0
 76
     1
 77
     6
 78
     2
 67
     7
 79
     5
170
     0
171
     0
290
     0
174
     0
 93
        1
 44
0.0
173
     0
291
     0
 45
0.0
1001
ACAD
1000
AcDbSavedByObjectVersion
1070
     0
  0
VISUALSTYLE
  5
756
102
{ACAD_REACTORS
330
74E
102
}
330
74E
100
AcDbVisualStyle
  2
3D Hidden
 70
     6
 71
     1
 72
     2
 73
     2
 90
        0
 40
-0.6
 41
-30.0
 62
     5
 63
     7
421
 16777215
 74
     2
 91
        2
 64
     7
 65
   257
 75
     2
175
     1
 42
40.0
 92
        0
 66
   257
 43
1.0
 76
     1
 77
     6
 78
     2
 67
     7
 79
     3
170
     0
171
     0
290
     0
174
     0
 93
        1
 44
0.0
173
     0
291
     0
 45
0.0
1001
ACAD
1000
AcDbSavedByObjectVersion
1070
     0
  0
VISUALSTYLE
  5
755
102
{ACAD_REACTORS
330
74E
102
}
330
74E
100
AcDbVisualStyle
  2
3dWireframe
 70
     5
 71
     0
 72
     2
 73
     0
 90
        0
 40
-0.6
 41
-30.0
 62
     5
 63
     7
421
 16777215
 74
     1
 91
        4
 64
     7
 65
   257
 75
     1
175
     1
 42
1.0
 92
        0
 66
   257
 43
1.0
 76
     1
 77
     6
 78
     2
 67
     7
 79
     5
170
     0
171
     0
290
     0
174
     0
 93
        1
 44
0.0
173
     0
291
     0
 45
0.0
1001
ACAD
1000
AcDbSavedByObjectVersion
1070
     0
  0
VISUALSTYLE
  5
753
102
{ACAD_REACTORS
330
74E
102
}
330
74E
100
AcDbVisualStyle
  2
Basic
 70
     7
 71
     1
 72
     0
 73
     1
 90
        0
 40
-0.6
 41
-30.0
 62
     5
 63
     7
421
 16777215
 74
     0
 91
        4
 64
     7
 65
   257
 75
     1
175
     1
 42
1.0
 92
        8
 66
     7
 43
1.0
 76
     1
 77
     6
 78
     2
 67
     7
 79
     5
170
     0
171
     0
290
     0
174
     0
 93
        1
 44
0.0
173
     0
291
     1
 45
0.0
1001
ACAD
1000
AcDbSavedByObjectVersion
1070
     0
  0
VISUALSTYLE
  5
75A
102
{ACAD_REACTORS
330
74E
102
}
330
74E
100
AcDbVisualStyle
  2
Brighten
 70
    12
 71
     2
 72
     2
 73
     0
 90
        0
 40
-0.6
 41
-30.0
 62
     5
 63
     7
421
 16777215
 74
     1
 91
        4
 64
     7
 65
   257
 75
     1
175
     1
 42
1.0
 92
        8
 66
     7
 43
1.0
 76
     1
 77
     6
 78
     2
 67
     7
 79
     5
170
     0
171
     0
290
     0
174
     0
 93
        1
 44
50.0
173
     0
291
     1
 45
0.0
1001
ACAD
1000
AcDbSavedByObjectVersion
1070
     0
  0
VISUALSTYLE
  5
75E
102
{ACAD_REACTORS
330
74E
102
}
330
74E
100
AcDbVisualStyle
  2
ColorChange
 70
    16
 71
     2
 72
     2
 73
     3
 90
        0
 40
-0.6
 41
-30.0
 62
     5
 63
     8
421
  8421504
 74
     1
 91
        4
 64
     7
 65
   257
 75
     1
175
     1
 42
1.0
 92
        8
 66
     8
424
  8421504
 43
1.0
 76
     1
 77
     6
 78
     2
 67
     7
 79
     5
170
     0
171
     0
290
     0
174
     0
 93
        1
 44
0.0
173
     0
291
     1
 45
0.0
1001
ACAD
1000
AcDbSavedByObjectVersion
1070
     0
  0
VISUALSTYLE
  5
757
102
{ACAD_REACTORS
330
74E
102
}
330
74E
100
AcDbVisualStyle
  2
Conceptual
 70
     9
 71
     3
 72
     2
 73
     0
 90
        0
 40
-0.6
 41
-30.0
 62
     5
 63
     7
421
 16777215
 74
     2
 91
        2
 64
     7
 65
   257
 75
     1
175
     1
 42
40.0
 92
        8
 66
     7
 43
1.0
 76
     1
 77
     6
 78
     2
 67
     7
 79
     3
170
     0
171
     0
290
     0
174
     0
 93
        1
 44
0.0
173
     0
291
     0
 45
0.0
1001
ACAD
1000
AcDbSavedByObjectVersion
1070
     0
  0
VISUALSTYLE
  5
759
102
{ACAD_REACTORS
330
74E
102
}
330
74E
100
AcDbVisualStyle
  2
Dim
 70
    11
 71
     2
 72
     2
 73
     0
 90
        0
 40
-0.6
 41
-30.0
 62
     5
 63
     7
421
 16777215
 74
     1
 91
        4
 64
     7
 65
   257
 75
     1
175
     1
 42
1.0
 92
        8
 66
     7
 43
1.0
 76
     1
 77
     6
 78
     2
 67
     7
 79
     5
170
     0
171
     0
290
     0
174
     0
 93
        1
 44
-50.0
173
     0
291
     1
 45
0.0
1001
ACAD
1000
AcDbSavedByObjectVersion
1070
     0
  0
VISUALSTYLE
  5
75D
102
{ACAD_REACTORS
330
74E
102
}
330
74E
100
AcDbVisualStyle
  2
Facepattern
 70
    15
 71
     2
 72
     2
 73
     0
 90
        0
 40
-0.6
 41
-30.0
 62
     5
 63
     7
421
 16777215
 74
     1
 91
        4
 64
     7
 65
   257
 75
     1
175
     1
 42
1.0
 92
        8
 66
     7
 43
1.0
 76
     1
 77
     6
 78
     2
 67
     7
 79
     5
170
     0
171
     0
290
     0
174
     0
 93
        1
 44
0.0
173
     0
291
     1
 45
0.0
1001
ACAD
1000
AcDbSavedByObjectVersion
1070
     0
  0
VISUALSTYLE
  5
74F
102
{ACAD_REACTORS
330
74E
102
}
330
74E
100
AcDbVisualStyle
  2
Flat
 70
     0
 71
     2
 72
     1
 73
     1
 90
        2
 40
-0.6
 41
30.0
 62
     5
 63
     7
421
 16777215
 74
     0
 91
        4
 64
     7
 65
   257
 75
     1
175
     1
 42
1.0
 92
        8
 66
     7
 43
1.0
 76
     1
 77
     6
 78
     2
 67
     7
 79
     5
170
     0
171
     0
290
     0
174
     0
 93
       13
 44
0.0
173
     0
291
     1
 45
0.0
1001
ACAD
1000
AcDbSavedByObjectVersion
1070
     0
  0
VISUALSTYLE
  5
750
102
{ACAD_REACTORS
330
74E
102
}
330
74E
100
AcDbVisualStyle
  2
FlatWithEdges
 70
     1
 71
     2
 72
     1
 73
     1
 90
        2
 40
-0.6
 41
30.0
 62
     5
 63
     7
421
 16777215
 74
     1
 91
        4
 64
     7
 65
   257
 75
     1
175
     1
 42
1.0
 92
        0
 66
   257
 43
1.0
 76
     1
 77
     6
 78
     2
 67
     7
 79
     5
170
     0
171
     0
290
     0
174
     0
 93
       13
 44
0.0
173
     0
291
     1
 45
0.0
1001
ACAD
1000
AcDbSavedByObjectVersion
1070
     0
  0
VISUALSTYLE
  5
751
102
{ACAD_REACTORS
330
74E
102
}
330
74E
100
AcDbVisualStyle
  2
Gouraud
 70
     2
 71
     2
 72
     2
 73
     1
 90
        2
 40
-0.6
 41
30.0
 62
     5
 63
     7
421
 16777215
 74
     0
 91
        4
 64
     7
 65
   257
 75
     1
175
     1
 42
1.0
 92
        0
 66
     7
 43
1.0
 76
     1
 77
     6
 78
     2
 67
     7
 79
     5
170
     0
171
     0
290
     0
174
     0
 93
       13
 44
0.0
173
     0
291
     1
 45
0.0
1001
ACAD
1000
AcDbSavedByObjectVersion
1070
     0
  0
VISUALSTYLE
  5
752
102
{ACAD_REACTORS
330
74E
102
}
330
74E
100
AcDbVisualStyle
  2
GouraudWithEdges
 70
     3
 71
     2
 72
     2
 73
     1
 90
        2
 40
-0.6
 41
30.0
 62
     5
 63
     7
421
 16777215
 74
     1
 91
        4
 64
     7
 65
   257
 75
     1
175
     1
 42
1.0
 92
        0
 66
   257
 43
1.0
 76
     1
 77
     6
 78
     2
 67
     7
 79
     5
170
     0
171
     0
290
     0
174
     0
 93
       13
 44
0.0
173
     0
291
     1
 45
0.0
1001
ACAD
1000
AcDbSavedByObjectVersion
1070
     0
  0
VISUALSTYLE
  5
75C
102
{ACAD_REACTORS
330
74E
102
}
330
74E
100
AcDbVisualStyle
  2
Linepattern
 70
    14
 71
     2
 72
     2
 73
     0
 90
        0
 40
-0.6
 41
-30.0
 62
     5
 63
     7
421
 16777215
 74
     1
 91
        4
 64
     7
 65
   257
 75
     7
175
     7
 42
1.0
 92
        8
 66
     7
 43
1.0
 76
     1
 77
     6
 78
     2
 67
     7
 79
     5
170
     0
171
     0
290
     0
174
     0
 93
        1
 44
0.0
173
     0
291
     1
 45
0.0
1001
ACAD
1000
AcDbSavedByObjectVersion
1070
     0
  0
VISUALSTYLE
  5
758
102
{ACAD_REACTORS
330
74E
102
}
330
74E
100
AcDbVisualStyle
  2
Realistic
 70
     8
 71
     2
 72
     2
 73
     0
 90
        0
 40
-0.6
 41
-30.0
 62
     5
 63
     7
421
 16777215
 74
     1
 91
        0
 64
     7
 65
   257
 75
     1
175
     1
 42
1.0
 92
        8
 66
     8
424
  7895160
 43
1.0
 76
     1
 77
     6
 78
     2
 67
     7
 79
     5
170
     0
171
     0
290
     0
174
     0
 93
       13
 44
0.0
173
     0
291
     0
 45
0.0
1001
ACAD
1000
AcDbSavedByObjectVersion
1070
     0
  0
VISUALSTYLE
  5
75B
102
{ACAD_REACTORS
330
74E
102
}
330
74E
100
AcDbVisualStyle
  2
Thicken
 70
    13
 71
     2
 72
     2
 73
     0
 90
        0
 40
-0.6
 41
-30.0
 62
     5
 63
     7
421
 16777215
 74
     1
 91
        4
 64
     7
 65
   257
 75
     1
175
     1
 42
1.0
 92
       12
 66
     7
 43
1.0
 76
     1
 77
     6
 78
     2
 67
     7
 79
     5
170
     0
171
     0
290
     0
174
     0
 93
        1
 44
0.0
173
     0
291
     1
 45
0.0
1001
ACAD
1000
AcDbSavedByObjectVersion
1070
     0
  0
DICTIONARYVAR
  5
D70
102
{ACAD_REACTORS
330
733
102
}
330
733
100
DictionaryVariables
280
     0
  1
1:1
  0
DICTIONARYVAR
  5
D6F
102
{ACAD_REACTORS
330
733
102
}
330
733
100
DictionaryVariables
280
     0
  1
STANDARD
  0
DICTIONARYVAR
  5
734
102
{ACAD_REACTORS
330
733
102
}
330
733
100
DictionaryVariables
280
     0
  1
STANDARD
  0
DICTIONARY
  5
73F
330
73E
100
AcDbDictionary
280
     1
281
     1
  3
ACAD_XREC_ROUNDTRIP
360
1D63
  3
BUMPTILE
360
741
  3
DIFFUSETILE
360
740
  3
OPACITYTILE
360
744
  3
REFLECTIONTILE
360
743
  3
REFRACTIONTILE
360
745
  3
SPECULARTILE
360
742
  0
DICTIONARY
  5
737
330
736
100
AcDbDictionary
280
     1
281
     1
  3
ACAD_XREC_ROUNDTRIP
360
1D62
  3
BUMPTILE
360
739
  3
DIFFUSETILE
360
738
  3
OPACITYTILE
360
73C
  3
REFLECTIONTILE
360
73B
  3
REFRACTIONTILE
360
73D
  3
SPECULARTILE
360
73A
  0
DICTIONARY
  5
747
330
746
100
AcDbDictionary
280
     1
281
     1
  3
ACAD_XREC_ROUNDTRIP
360
1D64
  3
BUMPTILE
360
749
  3
DIFFUSETILE
360
748
  3
OPACITYTILE
360
74C
  3
REFLECTIONTILE
360
74B
  3
REFRACTIONTILE
360
74D
  3
SPECULARTILE
360
74A
  0
DICTIONARY
  5
D5D
330
227
100
AcDbDictionary
280
     1
281
     1
  3
ACAD_ROUNDTRIP_2008_TABLESTYLE_CELLSTYLEMAP
360
1D5D
  3
ACAD_XREC_ROUNDTRIP
360
1D61
  0
XRECORD
  5
1D63
102
{ACAD_REACTORS
330
73F
102
}
330
73F
100
AcDbXrecord
280
     1
102
MATERIAL
148
0.0
149
0.0
149
0.0
 93
        0
 94
      127
282
     0
 72
     0
 77
     0
171
     0
175
     0
179
     0
273
     0
  0
XRECORD
  5
741
102
{ACAD_REACTORS
330
73F
102
}
330
73F
100
AcDbXrecord
280
     1
270
     1
271
     1
  0
XRECORD
  5
740
102
{ACAD_REACTORS
330
73F
102
}
330
73F
100
AcDbXrecord
280
     1
270
     1
271
     1
  0
XRECORD
  5
744
102
{ACAD_REACTORS
330
73F
102
}
330
73F
100
AcDbXrecord
280
     1
270
     1
271
     1
  0
XRECORD
  5
743
102
{ACAD_REACTORS
330
73F
102
}
330
73F
100
AcDbXrecord
280
     1
270
     1
271
     1
  0
XRECORD
  5
745
102
{ACAD_REACTORS
330
73F
102
}
330
73F
100
AcDbXrecord
280
     1
270
     1
271
     1
  0
XRECORD
  5
742
102
{ACAD_REACTORS
330
73F
102
}
330
73F
100
AcDbXrecord
280
     1
270
     1
271
     1
  0
XRECORD
  5
1D62
102
{ACAD_REACTORS
330
737
102
}
330
737
100
AcDbXrecord
280
     1
102
MATERIAL
148
0.0
149
0.0
149
0.0
 93
        0
 94
      127
282
     0
 72
     0
 77
     0
171
     0
175
     0
179
     0
273
     0
  0
XRECORD
  5
739
102
{ACAD_REACTORS
330
737
102
}
330
737
100
AcDbXrecord
280
     1
270
     1
271
     1
  0
XRECORD
  5
738
102
{ACAD_REACTORS
330
737
102
}
330
737
100
AcDbXrecord
280
     1
270
     1
271
     1
  0
XRECORD
  5
73C
102
{ACAD_REACTORS
330
737
102
}
330
737
100
AcDbXrecord
280
     1
270
     1
271
     1
  0
XRECORD
  5
73B
102
{ACAD_REACTORS
330
737
102
}
330
737
100
AcDbXrecord
280
     1
270
     1
271
     1
  0
XRECORD
  5
73D
102
{ACAD_REACTORS
330
737
102
}
330
737
100
AcDbXrecord
280
     1
270
     1
271
     1
  0
XRECORD
  5
73A
102
{ACAD_REACTORS
330
737
102
}
330
737
100
AcDbXrecord
280
     1
270
     1
271
     1
  0
XRECORD
  5
1D64
102
{ACAD_REACTORS
330
747
102
}
330
747
100
AcDbXrecord
280
     1
102
MATERIAL
148
0.0
149
0.0
149
0.0
 93
        0
 94
      127
282
     0
 72
     0
 77
     0
171
     0
175
     0
179
     0
273
     0
  0
XRECORD
  5
749
102
{ACAD_REACTORS
330
747
102
}
330
747
100
AcDbXrecord
280
     1
270
     1
271
     1
  0
XRECORD
  5
748
102
{ACAD_REACTORS
330
747
102
}
330
747
100
AcDbXrecord
280
     1
270
     1
271
     1
  0
XRECORD
  5
74C
102
{ACAD_REACTORS
330
747
102
}
330
747
100
AcDbXrecord
280
     1
270
     1
271
     1
  0
XRECORD
  5
74B
102
{ACAD_REACTORS
330
747
102
}
330
747
100
AcDbXrecord
280
     1
270
     1
271
     1
  0
XRECORD
  5
74D
102
{ACAD_REACTORS
330
747
102
}
330
747
100
AcDbXrecord
280
     1
270
     1
271
     1
  0
XRECORD
  5
74A
102
{ACAD_REACTORS
330
747
102
}
330
747
100
AcDbXrecord
280
     1
270
     1
271
     1
  0
CELLSTYLEMAP
  5
1D5D
102
{ACAD_REACTORS
330
D5D
102
}
330
D5D
100
AcDbCellStyleMap
 90
        3
300
CELLSTYLE
  1
TABLEFORMAT_BEGIN
 90
        5
170
     1
 91
        0
 92
    32768
 62
   257
 93
        1
300
CONTENTFORMAT
  1
CONTENTFORMAT_BEGIN
 90
        0
 91
        0
 92
        4
 93
        0
300

 40
0.0
140
1.0
 94
        5
 62
     0
340
11
144
6.0
309
CONTENTFORMAT_END
171
     1
301
MARGIN
  1
CELLMARGIN_BEGIN
 40
1.5
 40
1.5
 40
1.5
 40
1.5
 40
0.18
 40
0.18
309
CELLMARGIN_END
 94
        6
 95
        1
302
GRIDFORMAT
  1
GRIDFORMAT_BEGIN
 90
        0
 91
        1
 62
     0
 92
       -2
340
0
 93
        0
 40
0.045
309
GRIDFORMAT_END
 95
        2
302
GRIDFORMAT
  1
GRIDFORMAT_BEGIN
 90
        0
 91
        1
 62
     0
 92
       -2
340
0
 93
        0
 40
0.045
309
GRIDFORMAT_END
 95
        4
302
GRIDFORMAT
  1
GRIDFORMAT_BEGIN
 90
        0
 91
        1
 62
     0
 92
       -2
340
0
 93
        0
 40
0.045
309
GRIDFORMAT_END
 95
        8
302
GRIDFORMAT
  1
GRIDFORMAT_BEGIN
 90
        0
 91
        1
 62
     0
 92
       -2
340
0
 93
        0
 40
0.045
309
GRIDFORMAT_END
 95
       16
302
GRIDFORMAT
  1
GRIDFORMAT_BEGIN
 90
        0
 91
        1
 62
     0
 92
       -2
340
0
 93
        0
 40
0.045
309
GRIDFORMAT_END
 95
       32
302
GRIDFORMAT
  1
GRIDFORMAT_BEGIN
 90
        0
 91
        1
 62
     0
 92
       -2
340
0
 93
        0
 40
0.045
309
GRIDFORMAT_END
309
TABLEFORMAT_END
  1
CELLSTYLE_BEGIN
 90
        1
 91
        1
300
_TITLE
309
CELLSTYLE_END
300
CELLSTYLE
  1
TABLEFORMAT_BEGIN
 90
        5
170
     1
 91
        0
 92
        0
 62
   257
 93
        1
300
CONTENTFORMAT
  1
CONTENTFORMAT_BEGIN
 90
        0
 91
        0
 92
        4
 93
        0
300

 40
0.0
140
1.0
 94
        5
 62
     0
340
11
144
4.5
309
CONTENTFORMAT_END
171
     1
301
MARGIN
  1
CELLMARGIN_BEGIN
 40
1.5
 40
1.5
 40
1.5
 40
1.5
 40
0.18
 40
0.18
309
CELLMARGIN_END
 94
        6
 95
        1
302
GRIDFORMAT
  1
GRIDFORMAT_BEGIN
 90
        0
 91
        1
 62
     0
 92
       -2
340
0
 93
        0
 40
0.045
309
GRIDFORMAT_END
 95
        2
302
GRIDFORMAT
  1
GRIDFORMAT_BEGIN
 90
        0
 91
        1
 62
     0
 92
       -2
340
0
 93
        0
 40
0.045
309
GRIDFORMAT_END
 95
        4
302
GRIDFORMAT
  1
GRIDFORMAT_BEGIN
 90
        0
 91
        1
 62
     0
 92
       -2
340
0
 93
        0
 40
0.045
309
GRIDFORMAT_END
 95
        8
302
GRIDFORMAT
  1
GRIDFORMAT_BEGIN
 90
        0
 91
        1
 62
     0
 92
       -2
340
0
 93
        0
 40
0.045
309
GRIDFORMAT_END
 95
       16
302
GRIDFORMAT
  1
GRIDFORMAT_BEGIN
 90
        0
 91
        1
 62
     0
 92
       -2
340
0
 93
        0
 40
0.045
309
GRIDFORMAT_END
 95
       32
302
GRIDFORMAT
  1
GRIDFORMAT_BEGIN
 90
        0
 91
        1
 62
     0
 92
       -2
340
0
 93
        0
 40
0.045
309
GRIDFORMAT_END
309
TABLEFORMAT_END
  1
CELLSTYLE_BEGIN
 90
        2
 91
        1
300
_HEADER
309
CELLSTYLE_END
300
CELLSTYLE
  1
TABLEFORMAT_BEGIN
 90
        5
170
     1
 91
        0
 92
        0
 62
   257
 93
        1
300
CONTENTFORMAT
  1
CONTENTFORMAT_BEGIN
 90
        0
 91
        0
 92
        4
 93
        0
300

 40
0.0
140
1.0
 94
        2
 62
     0
340
11
144
4.5
309
CONTENTFORMAT_END
171
     1
301
MARGIN
  1
CELLMARGIN_BEGIN
 40
1.5
 40
1.5
 40
1.5
 40
1.5
 40
0.18
 40
0.18
309
CELLMARGIN_END
 94
        6
 95
        1
302
GRIDFORMAT
  1
GRIDFORMAT_BEGIN
 90
        0
 91
        1
 62
     0
 92
       -2
340
0
 93
        0
 40
0.045
309
GRIDFORMAT_END
 95
        2
302
GRIDFORMAT
  1
GRIDFORMAT_BEGIN
 90
        0
 91
        1
 62
     0
 92
       -2
340
0
 93
        0
 40
0.045
309
GRIDFORMAT_END
 95
        4
302
GRIDFORMAT
  1
GRIDFORMAT_BEGIN
 90
        0
 91
        1
 62
     0
 92
       -2
340
0
 93
        0
 40
0.045
309
GRIDFORMAT_END
 95
        8
302
GRIDFORMAT
  1
GRIDFORMAT_BEGIN
 90
        0
 91
        1
 62
     0
 92
       -2
340
0
 93
        0
 40
0.045
309
GRIDFORMAT_END
 95
       16
302
GRIDFORMAT
  1
GRIDFORMAT_BEGIN
 90
        0
 91
        1
 62
     0
 92
       -2
340
0
 93
        0
 40
0.045
309
GRIDFORMAT_END
 95
       32
302
GRIDFORMAT
  1
GRIDFORMAT_BEGIN
 90
        0
 91
        1
 62
     0
 92
       -2
340
0
 93
        0
 40
0.045
309
GRIDFORMAT_END
309
TABLEFORMAT_END
  1
CELLSTYLE_BEGIN
 90
        3
 91
        2
300
_DATA
309
CELLSTYLE_END
  0
XRECORD
  5
1D61
102
{ACAD_REACTORS
330
D5D
102
}
330
D5D
100
AcDbXrecord
280
     1
102
ACAD_ROUNDTRIP_PRE2007_TABLESTYLE
 90
        4
 91
        0
  1

 92
        4
 93
        0
  2

 94
        4
 95
        0
  3

  0
ENDSEC
  0
EOF
